<?xml version="1.0" standalone="no"?>
<!DOCTYPE svg PUBLIC "-//W3C//DTD SVG 1.1//EN" "http://www.w3.org/Graphics/SVG/1.1/DTD/svg11.dtd" >
<svg xmlns="http://www.w3.org/2000/svg">
<metadata>
This is a custom SVG webfont generated by Font Squirrel.
Copyright   : Copyright c 2008 by Hubert Jocham All rights reserved Webfont optimisation by Gran Sderstrm Pangea design 2011
Designer    : Hubert Jocham
Foundry     : Hubert Jocham
Foundry URL : httpwwwhubertjochamde
</metadata>
<defs>
<font id="VattenfallVoiceWebHeavyRg" horiz-adv-x="1228" >
<font-face units-per-em="2048" ascent="1556" descent="-492" />
<missing-glyph horiz-adv-x="471" />
<glyph unicode=" "  horiz-adv-x="471" />
<glyph unicode="&#x09;" horiz-adv-x="471" />
<glyph unicode="&#xa0;" horiz-adv-x="471" />
<glyph unicode="!" horiz-adv-x="503" d="M92 141q0 43 13.5 73t36 48.5t50 26.5t58.5 8q66 0 114 -35t48 -121t-48.5 -121.5t-113.5 -35.5q-59 0 -108.5 35.5t-49.5 121.5zM106 1524h293l-14 -1073h-266z" />
<glyph unicode="&#x22;" horiz-adv-x="784" d="M86 1524h248l-29 -428h-192zM451 1524h245l-26 -428h-193z" />
<glyph unicode="#" horiz-adv-x="1445" d="M47 399l39 230h250l47 241h-260l37 228h266l82 426h252l-80 -426h223l82 426h250l-82 -426h250l-37 -228h-256l-43 -241h262l-39 -230h-266l-74 -399h-254l76 399h-229l-76 -399h-254l78 399h-244zM586 629h231l43 241h-225z" />
<glyph unicode="$" d="M61 141l93 265q68 -41 145 -72q66 -27 148.5 -48.5t170.5 -21.5q236 0 236 168q0 55 -33 89t-87 56.5t-122.5 40t-139.5 38t-139.5 50t-122.5 79t-87 122t-33 180.5q0 174 102.5 285t280.5 139v244h270v-239q90 -10 161 -29t122 -37q59 -23 104 -45l-81 -262 q-59 33 -127 57q-59 23 -136 40t-168 17q-109 0 -162 -45t-53 -125q0 -57 32 -91.5t84 -57.5t119 -40t136.5 -36.5t136 -48.5t118.5 -76t84 -118.5t32 -176.5q0 -180 -107.5 -291.5t-294.5 -140.5v-274h-270v274q-94 10 -170 31.5t-129 44.5q-64 24 -113 55z" />
<glyph unicode="%" horiz-adv-x="1845" d="M84 1153q0 100 28.5 176t79 125t120 73.5t151.5 24.5q84 0 154.5 -23.5t120.5 -72.5t79 -124t29 -177q0 -104 -29 -180t-80 -125t-121.5 -72.5t-152.5 -23.5q-84 0 -152.5 23.5t-120 72.5t-79 125t-27.5 178zM258 0l1065 1524h258l-1059 -1524h-264zM299 1155 q0 -125 45 -178t123 -53q72 0 117 53t45 178q0 123 -44 175t-122 52q-74 0 -119 -52t-45 -175zM1006 371q0 100 28.5 176t78.5 125t120 73.5t151 24.5q84 0 155 -23.5t121 -72.5t78.5 -124t28.5 -177t-28.5 -178t-79.5 -125.5t-122 -74t-153 -24.5q-84 0 -152.5 23.5 t-119.5 73t-78.5 125.5t-27.5 178zM1219 373q0 -125 45 -178.5t122 -53.5q74 0 119 53.5t45 178.5q0 123 -44 175t-122 52q-74 0 -119.5 -52t-45.5 -175z" />
<glyph unicode="&#x26;" horiz-adv-x="1617" d="M115 403q0 129 65.5 237t206.5 179q-55 70 -91 144.5t-36 179.5q0 92 32 164.5t89 125t136 80t173 27.5q184 0 293 -99.5t109 -273.5q0 -141 -78 -246.5t-228 -175.5l236 -264q63 92 116.5 241.5t80.5 346.5h266q-35 -242 -106.5 -433.5t-161.5 -316.5q74 -68 198 -67h78 v-252h-96q-117 0 -203 26.5t-164 92.5q-92 -74 -200.5 -109t-227.5 -35q-123 0 -214 33t-152.5 90.5t-91 135t-29.5 169.5zM401 414q0 -86 58.5 -140.5t161.5 -54.5q76 0 133 24.5t86 53.5l-297 332q-59 -25 -100.5 -77t-41.5 -138zM526 1139q0 -55 21.5 -108.5t77.5 -108.5 q63 27 105 52t64.5 53t32 58.5t9.5 69.5q0 57 -38 100t-108 43q-86 0 -125 -48t-39 -111z" />
<glyph unicode="'" horiz-adv-x="432" d="M84 1524h264l-29 -428h-206z" />
<glyph unicode="(" horiz-adv-x="651" d="M86 686q0 207 41 362.5t90 262.5q57 125 133 213h285q-72 -92 -125 -217q-47 -106 -86 -262t-39 -359q0 -205 39 -359.5t86 -260.5q53 -125 125 -218h-285q-76 88 -133 213q-49 106 -90 261t-41 364z" />
<glyph unicode=")" horiz-adv-x="651" d="M18 -152q70 92 125 218q47 106 86 260.5t39 359.5q0 203 -39 358.5t-86 262.5q-55 125 -125 217h283q74 -88 133 -213q49 -106 91 -262t42 -363q0 -209 -42 -363.5t-91 -261.5q-59 -125 -133 -213h-283z" />
<glyph unicode="*" horiz-adv-x="1128" d="M53 1047l78 264l326 -140l-29 353h274l-30 -353l325 136l78 -263l-334 -75l232 -262l-225 -164l-181 301l-184 -297l-221 162l229 262z" />
<glyph unicode="+" d="M129 481v244h358v381h248v-381h365v-244h-365v-385h-248v385h-358z" />
<glyph unicode="," horiz-adv-x="479" d="M23 -209l106 494h301l-180 -494h-227z" />
<glyph unicode="-" horiz-adv-x="784" d="M74 483v244h635v-244h-635z" />
<glyph unicode="." horiz-adv-x="479" d="M82 147q0 90 48 127t110 37q63 0 112 -36.5t49 -127.5q0 -88 -49 -125.5t-112 -37.5q-61 0 -109.5 37.5t-48.5 125.5z" />
<glyph unicode="/" horiz-adv-x="839" d="M12 0l516 1524h299l-510 -1524h-305z" />
<glyph unicode="0" d="M68 762q0 213 43 361.5t117.5 241.5t174 135t213.5 42q113 0 212.5 -42t173 -135t116.5 -241.5t43 -361.5t-43 -361.5t-116.5 -243t-173 -136t-212.5 -41.5q-115 0 -214 41.5t-173.5 136t-117.5 243t-43 361.5zM371 762q0 -152 18.5 -255.5t52 -165.5t78.5 -90t101 -28 q51 0 95 28t75.5 90t49 165.5t17.5 255.5q0 154 -17.5 257t-49 165.5t-76.5 89t-99 26.5q-51 0 -96 -26.5t-77.5 -89t-52 -165.5t-19.5 -257z" />
<glyph unicode="1" d="M117 0v246h383v944l-303 -141v264l381 211h227v-1278h348v-246h-1036z" />
<glyph unicode="2" d="M98 1147q23 111 88 196q27 37 67 73t93 63.5t122 45t157 17.5q113 0 205 -30.5t156.5 -89t99 -142.5t34.5 -190q0 -72 -14 -131.5t-46 -116t-80 -113.5t-116 -123l-366 -360h647v-246h-1022v242l534 534q45 45 76 82t51.5 74t29.5 73.5t9 81.5q0 100 -57 149.5t-150 49.5 q-78 0 -122.5 -32.5t-69.5 -71.5q-29 -45 -39 -103z" />
<glyph unicode="3" d="M76 377l289 69q10 -61 41 -110q27 -41 76.5 -75t138.5 -34q96 0 159.5 55.5t63.5 161.5t-60.5 162t-156.5 56h-207v235h172q90 0 153.5 50t63.5 151q0 98 -57.5 143t-143.5 45q-72 0 -114.5 -30.5t-65.5 -65.5q-27 -43 -37 -96l-287 65q20 106 84 191q27 37 65 70.5 t90 61t119.5 44t153.5 16.5q104 0 193.5 -25.5t154 -76.5t101.5 -130t37 -184q0 -88 -31 -149.5t-67 -102.5q-43 -47 -99 -75q63 -25 117 -74q45 -41 82 -110.5t37 -178.5q0 -113 -41 -198.5t-111.5 -144t-166 -88.5t-204.5 -30q-92 0 -164.5 17.5t-128 45.5t-96.5 64.5 t-67 73.5q-66 88 -86 201z" />
<glyph unicode="4" d="M59 258v236l580 1030h405v-1024h144v-242h-144v-258h-290v258h-695zM358 500h396v721z" />
<glyph unicode="5" d="M88 375q72 16 143.5 34.5t145.5 34.5q10 -61 39 -110q25 -41 74 -75t135 -34q47 0 90 16.5t74.5 49.5t51 84t19.5 119q0 135 -75.5 199.5t-196.5 64.5q-92 0 -171 -17.5t-136 -40.5q-68 -25 -121 -55v879h927v-252h-659v-309q27 10 61 18q29 6 68 12t82 6 q104 0 197.5 -27.5t164 -89t112.5 -157.5t42 -231q0 -129 -42 -226.5t-114.5 -162t-169 -97.5t-204.5 -33q-92 0 -164 17.5t-127 45.5t-95 63.5t-67 72.5q-66 88 -84 201z" />
<glyph unicode="6" d="M94 717q0 227 40 386t111.5 257t173 142t224.5 44q80 0 143.5 -16.5t112.5 -42t84 -59t59 -68.5q57 -82 76 -186l-282 -68q-12 53 -35 94q-23 35 -59.5 64.5t-102.5 29.5q-49 0 -91 -22.5t-75 -70.5t-53.5 -122.5t-22.5 -177.5q35 18 78 35q37 14 85 25.5t108 11.5 q102 0 191 -27.5t155.5 -86t104.5 -148.5t38 -215q0 -129 -41 -224.5t-111.5 -160t-163.5 -96t-198 -31.5q-115 0 -214 37.5t-174 124.5t-118 227.5t-43 343.5zM389 670q0 -127 20.5 -212t56.5 -136.5t83 -74t102 -22.5q88 0 151.5 64.5t63.5 202.5q0 70 -19.5 118.5 t-53 77.5t-78.5 42t-97 13q-49 0 -91 -11t-72 -25q-37 -17 -66 -37z" />
<glyph unicode="7" d="M104 1276v248h1026v-244l-524 -1280h-315l522 1276h-709z" />
<glyph unicode="8" d="M76 424q0 104 34.5 173t77.5 112q51 49 115 77q-55 31 -96 78q-35 41 -64.5 102.5t-29.5 153.5q0 106 41 186t110.5 132.5t160.5 78t191 25.5q102 0 193.5 -25.5t159 -76.5t107.5 -131t40 -187q0 -92 -30.5 -153.5t-65.5 -100.5q-41 -45 -94 -73q61 -27 112 -76 q43 -41 79 -111.5t36 -177.5q0 -117 -44 -202t-117.5 -141t-172 -84t-205.5 -28q-109 0 -206 27t-170.5 82t-117.5 140t-44 200zM369 442q0 -111 69.5 -165t175.5 -54t176 54.5t70 164.5q0 109 -64.5 168.5t-179.5 59.5q-119 0 -183 -62t-64 -166zM403 1106 q0 -102 60.5 -152.5t146.5 -50.5q43 0 82 12.5t69 38t47 63.5t17 89q0 96 -59 144t-152 48q-92 0 -151.5 -47t-59.5 -145z" />
<glyph unicode="9" d="M72 1034q0 129 41 225.5t110.5 161t162.5 96t198 31.5q115 0 215 -39t175 -125t118 -226t43 -343q0 -227 -40 -386t-112 -257t-174 -142t-225 -44q-80 0 -143.5 15t-112.5 42t-84 59.5t-60 67.5q-57 82 -75 186l282 68q8 -53 33 -94q20 -35 59 -64.5t105 -29.5 q98 0 165.5 93t75.5 300q-35 -20 -77 -37q-37 -14 -86.5 -24.5t-106.5 -10.5q-102 0 -191 27.5t-155 86t-103.5 148.5t-37.5 215zM360 1038q0 -72 19.5 -120t53.5 -76.5t80 -42t97 -13.5q47 0 89 11.5t73 25.5q37 16 66 39q0 125 -20.5 210t-56.5 136.5t-83 74t-103 22.5 q-88 0 -151.5 -65t-63.5 -202z" />
<glyph unicode=":" horiz-adv-x="479" d="M82 909q0 90 48 127t110 37q63 0 112 -36.5t49 -127.5q0 -88 -49 -125.5t-112 -37.5q-61 0 -109.5 37.5t-48.5 125.5zM82 147q0 90 48 127t110 37q63 0 112 -36.5t49 -127.5q0 -88 -49 -125.5t-112 -37.5q-61 0 -109.5 37.5t-48.5 125.5z" />
<glyph unicode=";" horiz-adv-x="479" d="M105 909q0 90 48 127t110 37q63 0 112 -36.5t49 -127.5q0 -88 -49 -125.5t-112 -37.5q-61 0 -109.5 37.5t-48.5 125.5zM13 -209l106 494h301l-180 -494h-227z" />
<glyph unicode="&#x3c;" d="M113 485v248l1003 348v-266l-680 -209l680 -219v-260z" />
<glyph unicode="=" d="M131 328v225h969v-225h-969zM131 688v223h969v-223h-969z" />
<glyph unicode="&#x3e;" d="M113 127v260l678 219l-678 209v266l1003 -348v-248z" />
<glyph unicode="?" horiz-adv-x="942" d="M31 1161q12 102 65 185q23 35 55.5 68.5t77.5 59t104.5 42t137.5 16.5q94 0 174 -23.5t137.5 -71.5t89 -120t31.5 -170q0 -86 -23.5 -143.5t-57.5 -100.5t-74.5 -74.5t-74.5 -65.5t-57.5 -75t-23.5 -98v-141h-277v135q0 86 23.5 143t57.5 99t75 74t75 65.5t57.5 74.5 t23.5 105q0 74 -41 112.5t-113 38.5q-59 0 -92 -28.5t-49 -63.5q-20 -39 -23 -90zM297 141q0 86 48 121t112 35q61 0 110 -35t49 -121t-49 -120.5t-110 -34.5q-63 0 -111.5 34.5t-48.5 120.5z" />
<glyph unicode="@" horiz-adv-x="1910" d="M176 760q0 174 59.5 318.5t167 246.5t256 159.5t324.5 57.5q166 0 304 -52t237.5 -146.5t155 -223.5t55.5 -282q0 -117 -30 -209t-82 -154.5t-121.5 -96.5t-147.5 -34q-59 0 -98 16.5t-62 36.5q-27 23 -41 56q-37 -33 -82 -58q-39 -23 -92 -39t-117 -16 q-113 0 -187.5 61.5t-74.5 184.5q0 74 32 125t87 82.5t129 46t158 14.5h112v37q0 68 -34.5 92.5t-98.5 24.5q-66 0 -119 -11.5t-94 -25.5q-47 -16 -86 -37l-59 168q47 25 104 47q49 16 115.5 31.5t146.5 15.5q160 0 242 -68.5t82 -224.5v-297q0 -45 20.5 -65.5t48.5 -20.5 q57 0 96.5 76t39.5 229q0 119 -41 214.5t-114 163t-172 103t-214 35.5q-137 0 -244.5 -42t-182.5 -118.5t-115 -183t-40 -237.5q0 -135 40 -242.5t118 -182.5t190.5 -115t260.5 -40q100 0 189 17.5t155 40.5q78 25 143 59l59 -195q-70 -37 -153 -63q-72 -25 -173.5 -44.5 t-219.5 -19.5q-197 0 -350.5 54.5t-261 157t-164 247t-56.5 326.5zM809 592q0 -43 29.5 -62.5t68.5 -19.5q45 0 83 13.5t67 29.5q33 18 61 43v109h-110q-115 0 -157 -34t-42 -79z" />
<glyph unicode="A" horiz-adv-x="1472" d="M31 0l518 1524h385l510 -1524h-336l-88 281h-578l-90 -281h-321zM506 535h450l-223 700z" />
<glyph unicode="B" horiz-adv-x="1341" d="M117 0v1524h635q94 0 179 -22.5t148.5 -71t100.5 -123t37 -181.5q0 -90 -29 -151.5t-64 -100.5q-41 -45 -92 -73q63 -27 115 -76q43 -41 79 -111.5t36 -177.5q0 -113 -40 -194.5t-105.5 -136t-150.5 -80t-175 -25.5h-674zM418 256h334q88 0 146 49t58 148 q0 102 -62.5 150t-150.5 48h-325v-395zM418 905h289q88 0 148 49.5t60 141.5t-57 134t-147 42h-293v-367z" />
<glyph unicode="C" horiz-adv-x="1497" d="M86 762q0 211 57.5 359.5t154.5 242.5t222 136t260 42q111 0 197 -22.5t151.5 -58.5t112.5 -82t80 -95q76 -113 98 -258l-301 -65q-16 88 -57 157q-18 31 -43 59.5t-59.5 51t-78.5 36t-100 13.5q-72 0 -138.5 -24.5t-118.5 -84t-83.5 -159t-31.5 -248.5q0 -150 31.5 -249 t85 -159.5t122 -85t139.5 -24.5q113 0 178.5 47t100.5 104q39 68 53 154l301 -66q-27 -141 -104 -254q-33 -47 -81 -93t-113.5 -81t-150.5 -56.5t-192 -21.5q-135 0 -260 43t-221 137.5t-153.5 244t-57.5 360.5z" />
<glyph unicode="D" horiz-adv-x="1447" d="M117 0v1524h551q143 0 270 -42t223 -133.5t152.5 -235.5t56.5 -351t-57.5 -351.5t-154.5 -235.5t-225 -133t-269 -42h-547zM432 262h234q74 0 142.5 24.5t120.5 83t83.5 155t31.5 239.5t-30.5 239.5t-83.5 155t-123 83t-148 24.5h-227v-1004z" />
<glyph unicode="E" horiz-adv-x="1226" d="M117 0v1524h1028v-258h-723v-361h637v-256h-637v-387h727v-262h-1032z" />
<glyph unicode="F" horiz-adv-x="1181" d="M117 0v1524h1011v-258h-702v-385h635v-256h-635v-625h-309z" />
<glyph unicode="G" horiz-adv-x="1515" d="M84 758q0 211 58.5 360.5t154.5 243.5t222 137t261 43q145 0 249 -36t174.5 -90t112.5 -117.5t64.5 -119t29.5 -92t7 -38.5l-303 -70q-16 82 -57 147q-35 55 -100.5 101.5t-176.5 46.5q-72 0 -138.5 -24.5t-118.5 -85t-83.5 -160t-31.5 -246.5q0 -139 31.5 -238.5 t87 -163t129 -93.5t157.5 -30q72 0 127 11.5t94 27.5q45 18 80 41v211h-293v242h594v-580q-70 -59 -162 -104q-78 -39 -191.5 -70.5t-256.5 -31.5q-137 0 -266 41.5t-230.5 135t-163 242t-61.5 359.5z" />
<glyph unicode="H" horiz-adv-x="1441" d="M117 0v1524h321v-617h568v617h317v-1524h-317v643h-568v-643h-321z" />
<glyph unicode="I" horiz-adv-x="563" d="M119 0v1524h325v-1524h-325z" />
<glyph unicode="J" horiz-adv-x="673" d="M37 0v258h63q145 0 146 137v1129h309v-1131q0 -104 -29.5 -179t-85 -122t-133.5 -69.5t-174 -22.5h-96z" />
<glyph unicode="K" horiz-adv-x="1394" d="M117 0v1524h315v-697l531 697h370l-389 -494l418 -1030h-344l-311 766l-275 -324v-442h-315z" />
<glyph unicode="L" horiz-adv-x="1146" d="M117 0v1524h321v-1262h666v-262h-987z" />
<glyph unicode="M" horiz-adv-x="1665" d="M117 0v1524h413l304 -1080l315 1080h399v-1524h-286v1024l-306 -1024h-256l-301 1020v-1020h-282z" />
<glyph unicode="N" horiz-adv-x="1431" d="M117 0v1524h350l561 -1004v1004h287v-1524h-328l-584 1008v-1008h-286z" />
<glyph unicode="O" horiz-adv-x="1587" d="M86 762q0 211 56.5 360.5t153.5 242.5t225 136t274 43q143 0 272 -43t226.5 -136t153.5 -242.5t56 -360.5t-56 -359.5t-153.5 -242.5t-226.5 -137t-272 -43q-145 0 -273.5 43t-225.5 137t-153.5 242.5t-56.5 359.5zM399 762q0 -147 32 -248.5t87 -164t128 -89.5t155 -27 q76 0 146.5 27t124.5 89.5t86 163.5t32 249q0 150 -32 250t-85 161.5t-126 88t-152 26.5q-78 0 -150 -26.5t-126 -88t-87 -161.5t-33 -250z" />
<glyph unicode="P" horiz-adv-x="1284" d="M117 0v1524h635q98 0 184 -29t150.5 -86t101.5 -143t37 -199q0 -111 -38 -199t-102.5 -148.5t-150.5 -92t-182 -31.5h-328v-596h-307zM424 848h285q94 0 158.5 57.5t64.5 161.5q0 100 -60.5 152.5t-154.5 52.5h-293v-424z" />
<glyph unicode="Q" horiz-adv-x="1587" d="M86 768q0 209 56.5 356.5t153.5 240.5t225 136t274 43q143 0 272 -43t226.5 -136t153.5 -240.5t56 -356.5q0 -248 -82 -405.5t-209 -239.5q102 -49 158.5 -149.5t67.5 -215.5h-303q-12 117 -84 179.5t-172 62.5h-74q-147 0 -277.5 41t-228.5 133t-155.5 238.5 t-57.5 355.5zM399 768q0 -147 33 -245.5t89.5 -159t130 -86t155.5 -25.5q76 0 145.5 25.5t122.5 86t84 159t31 245.5t-32 246.5t-85 160t-126 87t-152 26.5q-78 0 -150 -26.5t-126 -87t-87 -160t-33 -246.5z" />
<glyph unicode="R" horiz-adv-x="1347" d="M117 0v1524h661q98 0 185.5 -28t153 -85t104.5 -142t39 -198q0 -158 -76 -265.5t-189 -158.5l314 -647h-338l-277 588h-268v-588h-309zM424 850h307q94 0 157.5 56.5t63.5 160.5q0 100 -59 152.5t-154 52.5h-315v-422z" />
<glyph unicode="S" horiz-adv-x="1277" d="M74 129l96 266q72 -41 152 -71q68 -29 154.5 -50.5t178.5 -21.5q121 0 182.5 45t61.5 127q0 57 -35 92t-90 58.5t-127 40t-147.5 38t-147 52t-127 80t-90.5 124t-35 185.5q0 102 37 185t106.5 141.5t169 89t224.5 30.5q123 0 223.5 -19.5t171.5 -41.5q84 -27 152 -62 l-84 -266q-63 33 -135 57q-61 23 -144.5 40.5t-175.5 17.5q-113 0 -174 -45t-61 -125q0 -78 58 -118t147.5 -65.5t191.5 -49t191 -72t147.5 -131t58.5 -226.5q0 -104 -39 -187t-110.5 -141.5t-173 -90t-228.5 -31.5q-129 0 -234.5 21.5t-182.5 49.5q-90 33 -162 74z" />
<glyph unicode="T" horiz-adv-x="1202" d="M37 1266v258h1130v-258h-407v-1266h-320v1266h-403z" />
<glyph unicode="U" horiz-adv-x="1456" d="M115 557v967h319v-967q0 -147 75 -229t222 -82q150 0 222.5 81t72.5 230v967h315v-967q0 -137 -42 -245.5t-120.5 -184.5t-192.5 -116t-257 -40t-257 40t-193.5 116t-121.5 184.5t-42 245.5z" />
<glyph unicode="V" horiz-adv-x="1417" d="M31 1524h338l342 -1155l352 1155h326l-504 -1524h-361z" />
<glyph unicode="W" horiz-adv-x="2086" d="M47 1524h330l186 -1168l316 1168h340l309 -1164l192 1164h320l-299 -1524h-406l-295 1157l-303 -1157h-415z" />
<glyph unicode="X" horiz-adv-x="1409" d="M31 0l471 776l-453 748h361l305 -531l297 531h350l-449 -748l467 -776h-358l-315 571l-322 -571h-354z" />
<glyph unicode="Y" horiz-adv-x="1372" d="M27 1524h356l307 -574l307 574h349l-500 -852v-672h-314v666z" />
<glyph unicode="Z" horiz-adv-x="1318" d="M96 0v252l748 1014h-746v258h1106v-250l-735 -1012h766v-262h-1139z" />
<glyph unicode="[" horiz-adv-x="651" d="M100 -152v1676h498v-260h-205v-1155h205v-261h-498z" />
<glyph unicode="\" horiz-adv-x="839" d="M12 1524h299l516 -1524h-305z" />
<glyph unicode="]" horiz-adv-x="651" d="M55 109h207v1157h-207v258h498v-1676h-498v261z" />
<glyph unicode="_" horiz-adv-x="1128" d="M-16 -141h1163v-221h-1163v221z" />
<glyph unicode="`" horiz-adv-x="1126" d="M289 1524h323l187 -316h-240z" />
<glyph unicode="a" horiz-adv-x="1157" d="M66 301q0 96 39.5 162.5t110.5 107.5t166 59.5t204 18.5h147v51q0 84 -46 117t-128 33q-84 0 -153.5 -15.5t-120.5 -31.5q-59 -20 -109 -45l-78 217q59 33 133 57q63 23 148.5 41.5t189.5 18.5q205 0 314.5 -88.5t109.5 -288.5v-379q0 -66 38 -98.5t87 -32.5l-22 -219 q-137 0 -214 33.5t-114 109.5q-45 -41 -102 -72q-49 -27 -117 -48t-150 -21q-72 0 -133 19.5t-106 59t-69.5 98t-24.5 136.5zM332 315q0 -59 40 -83.5t89 -24.5q57 0 107 16.5t87 38.5q43 25 78 57v142h-145q-145 0 -200.5 -44.5t-55.5 -101.5z" />
<glyph unicode="b" horiz-adv-x="1150" d="M104 121v1403h273v-563q39 35 88 61q41 23 96 42t121 19q84 0 156.5 -27.5t127 -92t86 -169t31.5 -257.5q0 -152 -43 -258.5t-113.5 -173t-161.5 -96t-190 -29.5q-109 0 -194.5 21.5t-147.5 47.5q-72 31 -129 72zM377 268q25 -16 55 -26q27 -10 62.5 -17.5t83.5 -7.5 q43 0 82.5 15.5t70.5 51t49.5 96t18.5 150.5q0 94 -14.5 156t-40 97.5t-59.5 49t-71 13.5q-51 0 -93 -17.5t-75 -40.5q-37 -25 -69 -57v-463z" />
<glyph unicode="c" horiz-adv-x="1101" d="M68 541q0 152 43 257t114.5 171.5t163.5 96.5t189 30q82 0 144 -16.5t110.5 -44t82 -61.5t56.5 -71q53 -84 69 -190l-258 -58q-10 57 -32 103q-20 39 -60.5 71.5t-107.5 32.5q-43 0 -84 -14t-73 -51t-51.5 -99.5t-19.5 -156.5q0 -96 19.5 -159t50.5 -99.5t71 -51 t83 -14.5q66 0 105.5 29.5t61.5 64.5q25 41 35 95l260 -56q-20 -104 -75 -186q-25 -35 -60 -68t-83 -59.5t-110.5 -41.5t-142.5 -15q-98 0 -188 30.5t-159.5 98t-111.5 174t-42 258.5z" />
<glyph unicode="d" horiz-adv-x="1157" d="M68 535q0 150 32.5 255t88 169.5t130 94t160.5 29.5q63 0 117.5 -17t95.5 -40q47 -25 84 -55v553h277v-1524h-275v102q-41 -35 -88 -59q-41 -23 -95 -41t-120 -18q-86 0 -159.5 28.5t-129 94t-87 170t-31.5 258.5zM354 537q0 -96 14.5 -159t39 -98.5t57.5 -50t70 -14.5 q51 0 95 18.5t77 40.5q37 27 69 62v397q-35 33 -71 58q-33 23 -77 41t-93 18q-37 0 -70 -14.5t-57.5 -49t-39 -96t-14.5 -153.5z" />
<glyph unicode="e" horiz-adv-x="1124" d="M68 539q0 147 42 252.5t110.5 171t158.5 96.5t188 31q94 0 181.5 -28t155 -91.5t107.5 -168t40 -255.5v-103h-707q8 -59 33.5 -100t63.5 -66.5t85 -37t97 -11.5q74 0 137 14.5t110 30.5q55 20 103 48l76 -218q-55 -35 -123 -61q-59 -23 -139 -41t-179 -18 q-111 0 -209 30.5t-171.5 97t-116.5 172t-43 255.5zM344 631h432q0 66 -18.5 110.5t-48 73.5t-66.5 42t-74 13q-39 0 -76.5 -12t-68.5 -41t-52.5 -73.5t-27.5 -112.5z" />
<glyph unicode="f" horiz-adv-x="727" d="M35 850v219h149v150q0 158 93.5 236.5t246.5 78.5q47 0 88 -4t72 -8q37 -6 66 -13l-33 -223q-20 4 -43 8q-20 4 -46 7.5t-53 3.5q-61 0 -86.5 -30t-25.5 -87v-119h246v-219h-246v-850h-279v850h-149z" />
<glyph unicode="g" horiz-adv-x="1210" d="M84 719q0 160 124 255t365 95h605v-182h-181q16 -18 31 -41q12 -23 22.5 -53.5t10.5 -73.5q0 -164 -129 -250t-361 -86q-25 0 -48 1t-40 5q-23 2 -39 6l-12 -20q-4 -10 -8 -22.5t-4 -24.5q0 -29 19.5 -45.5t54.5 -20.5l286 -18q190 -10 284.5 -86t94.5 -209 q0 -84 -41 -150.5t-113.5 -112.5t-173 -70t-221.5 -24q-119 0 -215 19.5t-163.5 59.5t-103.5 100.5t-36 142.5q0 55 21.5 102t50.5 82q33 39 74 74q-8 6 -32 39t-24 92q0 29 9.5 55.5t19.5 47.5q12 23 29 43q-27 16 -54.5 40.5t-50 58.5t-37 76t-14.5 95zM350 715 q0 -76 56.5 -113t164.5 -37q111 0 169.5 39t58.5 111q0 74 -58.5 115.5t-169.5 41.5t-166 -41.5t-55 -115.5zM362 -59q0 -76 67 -114t181 -38q123 0 201 37t78 115q0 53 -42 79.5t-114 34.5l-307 29q-18 -16 -33 -39q-12 -18 -21.5 -44.5t-9.5 -59.5z" />
<glyph unicode="h" horiz-adv-x="1124" d="M102 0v1524h273v-578q39 39 90 70q43 27 104.5 48t135.5 21q143 0 228 -86t85 -270v-729h-275v686q0 86 -35.5 120t-93.5 34q-47 0 -90 -19.5t-75 -42.5q-37 -27 -70 -59v-719h-277z" />
<glyph unicode="i" horiz-adv-x="507" d="M96 1376q0 80 47 114t109 34q61 0 110.5 -34t49.5 -114q0 -78 -49.5 -112.5t-110.5 -34.5t-108.5 34.5t-47.5 112.5zM115 0v1069h276v-1069h-276z" />
<glyph unicode="j" horiz-adv-x="509" d="M-41 -162h59q47 0 73 22.5t26 78.5v1130h276v-1143q0 -78 -26.5 -136t-72.5 -97t-111.5 -58.5t-141.5 -19.5h-82v223zM98 1376q0 80 46 114t110 34q61 0 109.5 -34t48.5 -114q0 -78 -48.5 -112.5t-109.5 -34.5q-63 0 -109.5 34.5t-46.5 112.5z" />
<glyph unicode="k" horiz-adv-x="1103" d="M102 0v1524h273v-877l354 422h322l-281 -332l305 -737h-307l-207 508l-186 -199v-309h-273z" />
<glyph unicode="l" horiz-adv-x="485" d="M104 0v1524h277v-1524h-277z" />
<glyph unicode="m" horiz-adv-x="1642" d="M104 0v1069h271v-113q37 35 84 64q41 23 96 43t121 20q88 0 148.5 -36.5t93.5 -102.5q41 39 92 70q43 27 101 48t130 21q131 0 214 -78.5t83 -254.5v-750h-274v715q0 72 -34 100.5t-81 28.5q-39 0 -73 -16.5t-60 -36.5q-31 -23 -55 -52v-739h-277v715q0 72 -33 100.5 t-80 28.5q-39 0 -73.5 -16.5t-61.5 -34.5q-31 -23 -57 -52v-741h-275z" />
<glyph unicode="n" horiz-adv-x="1124" d="M102 0v1069h273v-123q39 39 90 70q43 27 104.5 48t135.5 21q137 0 225 -83.5t88 -272.5v-729h-275v686q0 78 -33.5 114t-93.5 36q-47 0 -90 -18.5t-75 -41.5q-37 -25 -72 -57v-719h-277z" />
<glyph unicode="o" horiz-adv-x="1161" d="M68 535q0 152 41 257t110.5 171.5t162.5 96.5t198 30q106 0 199 -30t163 -96.5t110 -172t40 -256.5q0 -152 -40 -257.5t-110 -171t-163 -95t-199 -29.5q-104 0 -197.5 29.5t-163 95t-110.5 171t-41 257.5zM348 535q0 -96 18.5 -162t50.5 -106t75 -56t92 -16q47 0 88 16 t71.5 56t49 105.5t18.5 162.5q0 96 -18.5 161.5t-49 105.5t-73.5 56t-92 16q-47 0 -88 -16t-73 -56t-50.5 -105.5t-18.5 -161.5z" />
<glyph unicode="p" horiz-adv-x="1157" d="M102 -385v1454h273v-106q41 35 92 61q43 23 98.5 42t120.5 19q82 0 155.5 -28.5t127 -94t85 -171t31.5 -259.5q0 -152 -32.5 -256t-90 -169.5t-133 -94t-163.5 -28.5q-61 0 -114.5 16t-92.5 37q-45 23 -82 55v-477h-275zM377 330q35 -33 72 -58q33 -23 75.5 -39t93.5 -16 q37 0 70 14.5t56.5 50t38 96t14.5 154.5t-14.5 156t-38 96.5t-56.5 49t-70 14.5q-51 0 -95 -17.5t-77 -39.5q-37 -25 -69 -58v-403z" />
<glyph unicode="q" horiz-adv-x="1150" d="M68 535q0 152 42 257t112.5 171.5t162.5 96.5t190 30q106 0 192.5 -23t150.5 -49q72 -31 131 -70v-1333h-275v491q-37 -35 -84 -61q-41 -23 -95 -41t-120 -18q-82 0 -155.5 27.5t-130 92t-89 170t-32.5 259.5zM354 537q0 -94 15.5 -154.5t42 -96.5t60.5 -49.5t71 -13.5 q51 0 93 17.5t73 40.5q37 25 63 57v463q-23 14 -53 26q-27 10 -62.5 18.5t-83.5 8.5q-43 0 -82.5 -15.5t-69.5 -52t-48.5 -97t-18.5 -152.5z" />
<glyph unicode="r" horiz-adv-x="794" d="M104 0v1069h273v-137q33 41 78 76q39 29 92 53t121 24q16 0 31.5 -2t29.5 -4q16 -2 31 -4v-254l-37 4l-33 4q-16 2 -28 2q-68 0 -120.5 -22.5t-86.5 -48.5q-41 -33 -74 -72v-688h-277z" />
<glyph unicode="s" horiz-adv-x="1017" d="M59 104l80 226q55 -33 119 -58q53 -23 123 -40t147 -17q84 0 123 27.5t39 74.5q0 53 -45 77t-112.5 38t-146.5 28.5t-146.5 47.5t-112.5 94.5t-45 169.5q0 154 113.5 239t314.5 85q100 0 181 -16.5t140 -35.5q68 -23 121 -51l-73 -223q-49 25 -109 47q-51 18 -118.5 33.5 t-143.5 15.5q-78 0 -118 -27.5t-40 -74.5q0 -51 45 -73.5t112.5 -37t146.5 -30t146.5 -48t112.5 -95t45 -171.5q0 -152 -115.5 -237.5t-316.5 -85.5q-106 0 -192 18.5t-148 40.5q-72 24 -127 59z" />
<glyph unicode="t" horiz-adv-x="796" d="M35 850v219h149v268h275v-268h264v-219h-264v-512q0 -57 26.5 -88t89.5 -31q29 0 52.5 2t44.5 6q23 4 43 11l33 -222q-29 -8 -64 -14q-31 -4 -72 -8t-88 -4q-156 0 -250 77.5t-94 235.5v547h-145z" />
<glyph unicode="u" horiz-adv-x="1124" d="M102 340v729h277v-688q0 -80 33.5 -114t93.5 -34q47 0 88 17.5t76 40.5q37 25 73 59v719h275v-1069h-270v121q-41 -39 -93 -70q-43 -27 -104.5 -47t-132.5 -20q-139 0 -227.5 84t-88.5 272z" />
<glyph unicode="v" horiz-adv-x="1036" d="M18 1069h291l213 -760l215 760h281l-342 -1069h-320z" />
<glyph unicode="w" horiz-adv-x="1591" d="M39 1069h283l122 -762l222 762h272l219 -764l125 764h270l-221 -1069h-327l-207 745l-213 -745h-338z" />
<glyph unicode="x" horiz-adv-x="1110" d="M25 0l360 545l-350 524h317l209 -332l203 332h307l-344 -524l360 -545h-315l-217 365l-221 -365h-309z" />
<glyph unicode="y" horiz-adv-x="1021" d="M20 1069h293l224 -707l188 707h276l-368 -1188q-41 -139 -137.5 -202.5t-251.5 -63.5h-68v223h45q53 0 85 19.5t48 66.5l37 107z" />
<glyph unicode="z" horiz-adv-x="1052" d="M86 0v215l528 635h-522v219h864v-209l-524 -639h545v-221h-891z" />
<glyph unicode="|" horiz-adv-x="512" d="M113 -385v1909h284v-1909h-284z" />
<glyph unicode="&#xa1;" horiz-adv-x="503" d="M92 997q0 84 49 121t109 37q33 0 61.5 -9t51 -27.5t36 -48.5t13.5 -73q0 -86 -48.5 -120.5t-113.5 -34.5q-31 0 -58.5 8t-50 26.5t-36 48t-13.5 72.5zM106 -385l13 1073h266l14 -1073h-293z" />
<glyph unicode="&#xa2;" d="M121 539q0 123 28.5 215t77.5 156.5t116 102.5t142 54v266h269v-260q117 -23 184.5 -81t101.5 -122q39 -74 52 -159l-258 -56q-8 57 -31 103q-20 39 -60.5 70.5t-107.5 31.5q-43 0 -84 -14.5t-73 -51t-51 -99t-19 -156.5q0 -90 16 -151.5t46 -99.5t71 -54.5t90 -16.5 q66 0 105.5 29.5t62.5 64.5q25 41 35 95l258 -58q-14 -84 -56 -153q-35 -59 -101.5 -117t-180.5 -80v-262h-269v264q-76 14 -142.5 53t-115.5 105.5t-77.5 160t-28.5 220.5z" />
<glyph unicode="&#xa3;" d="M59 0v244q104 2 168 19.5t99.5 45t47 64.5t11.5 76q0 35 -11.5 64.5t-15.5 33.5h-258v209h158l-53 84q-35 57 -56.5 123.5t-21.5 134.5q0 102 35 185t97.5 140.5t152.5 88t200 30.5q86 0 155 -17.5t120 -45t89 -64.5t62 -74q59 -88 76 -198l-287 -66q-8 57 -32 105 q-23 39 -64 71.5t-113 32.5q-88 0 -140 -50t-52 -153q0 -55 20.5 -105t47.5 -95l73 -125h367v-209h-283q4 -6 10.5 -37t6.5 -66q0 -68 -27 -116.5t-49 -71.5h110q88 0 163 19.5t128 44.5q63 27 115 63l78 -260q-55 -37 -129 -64q-66 -23 -159 -42t-220 -19h-619z" />
<glyph unicode="&#xa5;" d="M39 1524h350l232 -594l229 594h340l-342 -670h280v-188h-354v-113h354v-188h-354v-365h-311v365h-367v188h367v113h-367v188h289z" />
<glyph unicode="&#xa7;" d="M68 -260l94 260q66 -39 137 -70q61 -27 140 -47t165 -20q115 0 168 37t53 110q0 72 -54 108t-136 58.5t-176 45t-176 66.5t-136.5 121.5t-54.5 213.5q0 63 17.5 115.5t40.5 86.5q25 41 59 74q-27 23 -47 57q-18 29 -32.5 73t-14.5 106q0 90 33.5 163.5t98 127t158 83 t211.5 29.5q117 0 212.5 -18.5t160.5 -40.5q78 -27 139 -60l-79 -260q-57 31 -125 55q-59 23 -135 40.5t-164 17.5q-213 0 -213 -150q0 -76 54 -112.5t136 -60t177 -44t177 -63.5t136.5 -121t54.5 -213q0 -59 -20.5 -108.5t-43.5 -84.5q-27 -41 -61 -73q27 -20 49 -56 q18 -29 34.5 -73.5t16.5 -106.5q0 -188 -134 -295.5t-380 -107.5q-121 0 -220 20.5t-171 46.5q-83 31 -149 70zM373 618q0 -74 43 -111.5t108.5 -59t140 -36t140.5 -40.5q16 14 31 37q12 18 22 43.5t10 60.5q0 74 -45 109.5t-112.5 56t-145.5 35t-143 45.5q-14 -14 -25 -35 q-10 -16 -17 -43t-7 -62z" />
<glyph unicode="&#xa8;" horiz-adv-x="1126" d="M203 1376q0 80 47 114t106 34q63 0 112.5 -34t49.5 -114q0 -78 -49 -112.5t-113 -34.5q-59 0 -106 34.5t-47 112.5zM662 1376q0 80 47 114t106 34q63 0 112.5 -34t49.5 -114q0 -78 -49 -112.5t-113 -34.5q-59 0 -106 34.5t-47 112.5z" />
<glyph unicode="&#xa9;" horiz-adv-x="1910" d="M154 752q0 170 63.5 316t172 254t255 168t311.5 60q164 0 309.5 -60t255 -166.5t173 -253t63.5 -318.5q0 -170 -63.5 -316.5t-173 -254t-255 -170t-309.5 -62.5q-166 0 -312 62.5t-254.5 170t-172 254t-63.5 316.5zM367 752q0 -129 44 -239t122.5 -191.5t187 -128 t235.5 -46.5q125 0 232.5 46.5t185.5 128t123 191.5t45 239q0 131 -45 241.5t-123 190.5t-185.5 125t-232.5 45q-127 0 -235.5 -45t-187 -126t-122.5 -191.5t-44 -239.5zM578 752q0 115 32.5 195.5t86 130.5t124 74t144.5 24q123 0 193.5 -46.5t105.5 -101.5q41 -66 53 -145 l-199 -43q-6 41 -24 75q-16 29 -46 52.5t-81 23.5q-31 0 -62 -10t-55.5 -38t-39.5 -74t-15 -117q0 -72 15 -119t39.5 -74t55.5 -37t62 -10q51 0 80.5 21.5t46.5 48.5q18 31 24 69l199 -47q-14 -78 -57 -139q-37 -53 -109 -96t-193 -43q-74 0 -143.5 23.5t-121.5 74.5 t-83.5 132t-31.5 196z" />
<glyph unicode="&#xaa;" horiz-adv-x="1157" d="M66 301q0 96 39.5 162.5t110.5 107.5t166 59.5t204 18.5h147v51q0 84 -46 117t-128 33q-84 0 -153.5 -15.5t-120.5 -31.5q-59 -20 -109 -45l-78 217q59 33 133 57q63 23 148.5 41.5t189.5 18.5q205 0 314.5 -88.5t109.5 -288.5v-379q0 -66 38 -98.5t87 -32.5l-22 -219 q-137 0 -214 33.5t-114 109.5q-45 -41 -102 -72q-49 -27 -117 -48t-150 -21q-72 0 -133 19.5t-106 59t-69.5 98t-24.5 136.5zM332 315q0 -59 40 -83.5t89 -24.5q57 0 107 16.5t87 38.5q43 25 78 57v142h-145q-145 0 -200.5 -44.5t-55.5 -101.5z" />
<glyph unicode="&#xab;" horiz-adv-x="1142" d="M49 582l324 364h282l-327 -364l327 -367h-282zM485 582l324 364h285l-330 -364l330 -367h-285z" />
<glyph unicode="&#xad;" horiz-adv-x="784" d="M74 483v244h635v-244h-635z" />
<glyph unicode="&#xae;" horiz-adv-x="1910" d="M154 752q0 170 63.5 315t172 252.5t255 169t311.5 61.5q164 0 309.5 -60t255 -166.5t173 -253t63.5 -318.5q0 -170 -63.5 -316.5t-173 -254t-255 -170t-309.5 -62.5q-166 0 -312 62.5t-254.5 170t-172 254t-63.5 316.5zM365 752q0 -129 45 -240t123.5 -192.5t187 -128 t235.5 -46.5q125 0 232.5 46.5t185.5 128t123 192.5t45 240q0 131 -45 241.5t-123 190.5t-185.5 125t-232.5 45q-127 0 -235.5 -45t-187 -126t-123.5 -191.5t-45 -239.5zM641 350v817h399q55 0 104.5 -16t86.5 -48t58.5 -79t21.5 -111q0 -86 -39 -146t-98 -89l153 -328h-213 l-127 287h-151v-287h-195zM838 803h176q43 0 73.5 26.5t30.5 77.5q0 49 -28.5 73t-69.5 24h-182v-201z" />
<glyph unicode="&#xaf;" horiz-adv-x="1126" d="M229 1300v203h672v-203h-672z" />
<glyph unicode="&#xb0;" horiz-adv-x="974" d="M72 1126q0 117 33.5 200t91 134t133.5 75t157 24q82 0 158 -24t133.5 -75t92 -134t34.5 -200q0 -119 -34.5 -201.5t-92 -135t-133.5 -76t-158 -23.5t-157.5 23.5t-133 76t-91 135t-33.5 201.5zM307 1126q0 -123 51.5 -174t130.5 -51q78 0 128.5 51.5t50.5 173.5 q0 121 -50.5 170.5t-130.5 49.5q-78 0 -129 -49.5t-51 -170.5z" />
<glyph unicode="&#xb1;" d="M131 0v231h969v-231h-969zM131 578v243h354v285h248v-285h367v-243h-367v-271h-248v271h-354z" />
<glyph unicode="&#xb2;" d="M98 1147q23 111 88 196q27 37 67 73t93 63.5t122 45t157 17.5q113 0 205 -30.5t156.5 -89t99 -142.5t34.5 -190q0 -72 -14 -131.5t-46 -116t-80 -113.5t-116 -123l-366 -360h647v-246h-1022v242l534 534q45 45 76 82t51.5 74t29.5 73.5t9 81.5q0 100 -57 149.5t-150 49.5 q-78 0 -122.5 -32.5t-69.5 -71.5q-29 -45 -39 -103z" />
<glyph unicode="&#xb3;" d="M76 377l289 69q10 -61 41 -110q27 -41 76.5 -75t138.5 -34q96 0 159.5 55.5t63.5 161.5t-60.5 162t-156.5 56h-207v235h172q90 0 153.5 50t63.5 151q0 98 -57.5 143t-143.5 45q-72 0 -114.5 -30.5t-65.5 -65.5q-27 -43 -37 -96l-287 65q20 106 84 191q27 37 65 70.5 t90 61t119.5 44t153.5 16.5q104 0 193.5 -25.5t154 -76.5t101.5 -130t37 -184q0 -88 -31 -149.5t-67 -102.5q-43 -47 -99 -75q63 -25 117 -74q45 -41 82 -110.5t37 -178.5q0 -113 -41 -198.5t-111.5 -144t-166 -88.5t-204.5 -30q-92 0 -164.5 17.5t-128 45.5t-96.5 64.5 t-67 73.5q-66 88 -86 201z" />
<glyph unicode="&#xb4;" horiz-adv-x="1126" d="M301 1208l180 316h326l-270 -316h-236z" />
<glyph unicode="&#xb5;" d="M154 -385v1454h276v-696q0 -74 35 -105.5t92 -31.5q47 0 90 17t76 40q37 25 72 57v719h276v-1069h-272v117q-35 -35 -76 -62q-37 -23 -87 -42t-110 -19q-45 0 -71 10q-14 4 -25 10v-399h-276z" />
<glyph unicode="&#xb6;" horiz-adv-x="1288" d="M61 999q0 143 42 243.5t112 163t161 90.5t189 28h625v-1909h-236v1683h-200v-1683h-236v860q-92 6 -174 38t-145.5 94.5t-100.5 159.5t-37 232z" />
<glyph unicode="&#xb7;" horiz-adv-x="784" d="M242 610q0 90 48 127t110 37q63 0 112 -36.5t49 -127.5q0 -88 -49 -125.5t-112 -37.5q-61 0 -109.5 37.5t-48.5 125.5z" />
<glyph unicode="&#xb8;" horiz-adv-x="1126" d="M313 -352l56 119q20 -14 47 -25q23 -10 53.5 -16.5t67.5 -6.5q31 0 50 13.5t19 36.5q0 35 -46 44t-128 9l-12 31l84 147h147l-49 -84q63 -4 115.5 -39t52.5 -110q0 -82 -59.5 -130.5t-175.5 -48.5q-49 0 -90.5 9.5t-70 20.5t-44.5 21z" />
<glyph unicode="&#xb9;" d="M117 0v246h383v944l-303 -141v264l381 211h227v-1278h348v-246h-1036z" />
<glyph unicode="&#xba;" horiz-adv-x="1161" d="M68 535q0 152 41 257t110.5 171.5t162.5 96.5t198 30q106 0 199 -30t163 -96.5t110 -172t40 -256.5q0 -152 -40 -257.5t-110 -171t-163 -95t-199 -29.5q-104 0 -197.5 29.5t-163 95t-110.5 171t-41 257.5zM348 535q0 -96 18.5 -162t50.5 -106t75 -56t92 -16q47 0 88 16 t71.5 56t49 105.5t18.5 162.5q0 96 -18.5 161.5t-49 105.5t-73.5 56t-92 16q-47 0 -88 -16t-73 -56t-50.5 -105.5t-18.5 -161.5z" />
<glyph unicode="&#xbb;" horiz-adv-x="1142" d="M49 215l330 367l-330 364h287l321 -364l-321 -367h-287zM487 215l328 367l-328 364h283l324 -364l-324 -367h-283z" />
<glyph unicode="&#xbc;" horiz-adv-x="4302" d="M3133 258v236l580 1030h405v-1024h144v-242h-144v-258h-290v258h-695zM3432 500h396v721zM1487 0l1065 1524h258l-1059 -1524h-264zM117 0v246h383v944l-303 -141v264l381 211h227v-1278h348v-246h-1036z" />
<glyph unicode="&#xbd;" horiz-adv-x="4302" d="M3172 1147q23 111 88 196q27 37 67 73t93 63.5t122 45t157 17.5q113 0 205 -30.5t156.5 -89t99 -142.5t34.5 -190q0 -72 -14 -131.5t-46 -116t-80 -113.5t-116 -123l-366 -360h647v-246h-1022v242l534 534q45 45 76 82t51.5 74t29.5 73.5t9 81.5q0 100 -57 149.5 t-150 49.5q-78 0 -122.5 -32.5t-69.5 -71.5q-29 -45 -39 -103zM1487 0l1065 1524h258l-1059 -1524h-264zM117 0v246h383v944l-303 -141v264l381 211h227v-1278h348v-246h-1036z" />
<glyph unicode="&#xbe;" horiz-adv-x="4302" d="M3133 258v236l580 1030h405v-1024h144v-242h-144v-258h-290v258h-695zM3432 500h396v721zM1487 0l1065 1524h258l-1059 -1524h-264zM76 377l289 69q10 -61 41 -110q27 -41 76.5 -75t138.5 -34q96 0 159.5 55.5t63.5 161.5t-60.5 162t-156.5 56h-207v235h172 q90 0 153.5 50t63.5 151q0 98 -57.5 143t-143.5 45q-72 0 -114.5 -30.5t-65.5 -65.5q-27 -43 -37 -96l-287 65q20 106 84 191q27 37 65 70.5t90 61t119.5 44t153.5 16.5q104 0 193.5 -25.5t154 -76.5t101.5 -130t37 -184q0 -88 -31 -149.5t-67 -102.5q-43 -47 -99 -75 q63 -25 117 -74q45 -41 82 -110.5t37 -178.5q0 -113 -41 -198.5t-111.5 -144t-166 -88.5t-204.5 -30q-92 0 -164.5 17.5t-128 45.5t-96.5 64.5t-67 73.5q-66 88 -86 201z" />
<glyph unicode="&#xbf;" horiz-adv-x="942" d="M37 -6q0 84 23.5 142.5t57.5 100.5t74.5 74.5t74.5 66.5t57.5 74t23.5 99v139h279v-135q0 -86 -23.5 -143.5t-58.5 -99.5t-75 -73.5t-75 -65.5t-58.5 -76t-23.5 -103q0 -70 40 -110t114 -40q59 0 92 28t49 62q20 39 25 93l278 -47q-14 -104 -67 -187q-23 -35 -55.5 -68.5 t-77.5 -60t-105.5 -42t-136.5 -15.5q-94 0 -174 23.5t-137.5 71.5t-89 121t-31.5 171zM324 997q0 86 49 122t112 36t111.5 -36t48.5 -122t-48 -120.5t-112 -34.5q-63 0 -112 34.5t-49 120.5z" />
<glyph unicode="&#xc0;" horiz-adv-x="1472" d="M31 0l518 1524h385l510 -1524h-336l-88 281h-578l-90 -281h-321zM506 535h450l-223 700zM428 1930h323l187 -316h-240z" />
<glyph unicode="&#xc1;" horiz-adv-x="1472" d="M31 0l518 1524h385l510 -1524h-336l-88 281h-578l-90 -281h-321zM506 535h450l-223 700zM530 1614l180 316h326l-270 -316h-236z" />
<glyph unicode="&#xc2;" horiz-adv-x="1472" d="M31 0l518 1524h385l510 -1524h-336l-88 281h-578l-90 -281h-321zM506 535h450l-223 700zM365 1613l250 314h241l248 -314h-264l-107 156l-104 -156h-264z" />
<glyph unicode="&#xc3;" horiz-adv-x="1472" d="M31 0l518 1524h385l510 -1524h-336l-88 281h-578l-90 -281h-321zM506 535h450l-223 700zM329 1614q6 84 37 151q12 29 31.5 56.5t46.5 49t62.5 35t82.5 13.5q53 0 91 -16.5t69 -36t59.5 -36t61.5 -16.5q31 0 47 15.5t25 35.5q8 23 10 54h201q-8 -86 -37 -154 q-25 -57 -77 -104t-144 -47q-53 0 -90 16t-68 35.5t-59.5 36t-63.5 16.5q-31 0 -47.5 -16.5t-24.5 -36.5q-8 -23 -10 -51h-203z" />
<glyph unicode="&#xc4;" horiz-adv-x="1472" d="M31 0l518 1524h385l510 -1524h-336l-88 281h-578l-90 -281h-321zM506 535h450l-223 700zM348 1763q0 80 47 114t106 34q63 0 112.5 -34t49.5 -114q0 -78 -49 -112.5t-113 -34.5q-59 0 -106 34.5t-47 112.5zM807 1763q0 80 47 114t106 34q63 0 112.5 -34t49.5 -114 q0 -78 -49 -112.5t-113 -34.5q-59 0 -106 34.5t-47 112.5z" />
<glyph unicode="&#xc5;" horiz-adv-x="1472" d="M31 0l510 1485q-31 25 -49.5 61.5t-18.5 83.5q0 104 74 160.5t192 56.5q117 0 191 -56t74 -161q0 -45 -17.5 -82t-46.5 -59l504 -1489h-336l-88 281h-578l-90 -281h-321zM506 535h450l-223 700zM639 1630q0 -41 27.5 -67.5t72.5 -26.5q43 0 71 26.5t28 67.5 q0 37 -23.5 64.5t-75.5 27.5q-47 0 -73.5 -27.5t-26.5 -64.5z" />
<glyph unicode="&#xc6;" horiz-adv-x="2045" d="M16 0l596 1524h1350v-258h-719v-361h635v-256h-635v-387h725v-262h-1028v281h-487l-107 -281h-330zM530 535h410v731h-141z" />
<glyph unicode="&#xc7;" horiz-adv-x="1497" d="M86 762q0 211 57.5 359.5t153.5 242.5t221 136t260 42q111 0 197 -22.5t151.5 -58.5t112.5 -82t80 -95q76 -113 100 -258l-301 -65q-16 88 -57 157q-18 31 -43 59.5t-59.5 51t-78.5 36t-100 13.5q-72 0 -138.5 -24.5t-118.5 -84t-83.5 -159t-31.5 -248.5 q0 -150 31.5 -249t85 -157.5t121 -83t138.5 -24.5q115 0 180.5 46t100.5 103q39 68 53 152l301 -66q-27 -129 -94 -233q-29 -45 -71 -89t-99 -81t-133 -62.5t-170 -33.5l-39 -68q31 -2 60.5 -11t54 -27.5t39 -45.5t14.5 -65q0 -82 -58.5 -130.5t-174.5 -48.5 q-51 0 -92.5 9.5t-70 20.5t-44.5 21l-17 9l54 119q20 -14 47 -25q23 -10 54.5 -16.5t68.5 -6.5q31 0 49 13.5t18 36.5q0 35 -45 44t-129 9l-12 31l76 133q-123 10 -235 58t-198 142.5t-136 236.5t-50 339z" />
<glyph unicode="&#xc8;" horiz-adv-x="1226" d="M117 0v1524h1028v-258h-723v-361h637v-256h-637v-387h727v-262h-1032zM314 1930h323l187 -316h-240z" />
<glyph unicode="&#xc9;" horiz-adv-x="1226" d="M117 0v1524h1028v-258h-723v-361h637v-256h-637v-387h727v-262h-1032zM432 1614l180 316h326l-270 -316h-236z" />
<glyph unicode="&#xca;" horiz-adv-x="1226" d="M117 0v1524h1028v-258h-723v-361h637v-256h-637v-387h727v-262h-1032zM258 1613l250 314h241l248 -314h-264l-107 156l-104 -156h-264z" />
<glyph unicode="&#xcb;" horiz-adv-x="1226" d="M117 0v1524h1028v-258h-723v-361h637v-256h-637v-387h727v-262h-1032zM246 1763q0 80 47 114t106 34q63 0 112.5 -34t49.5 -114q0 -78 -49 -112.5t-113 -34.5q-59 0 -106 34.5t-47 112.5zM705 1763q0 80 47 114t106 34q63 0 112.5 -34t49.5 -114q0 -78 -49 -112.5 t-113 -34.5q-59 0 -106 34.5t-47 112.5z" />
<glyph unicode="&#xcc;" horiz-adv-x="563" d="M119 0v1524h325v-1524h-325zM-39 1930h323l187 -316h-240z" />
<glyph unicode="&#xcd;" horiz-adv-x="563" d="M119 0v1524h325v-1524h-325zM104 1614l180 316h326l-270 -316h-236z" />
<glyph unicode="&#xce;" horiz-adv-x="563" d="M119 0v1524h325v-1524h-325zM-88 1613l250 314h241l248 -314h-264l-107 156l-104 -156h-264z" />
<glyph unicode="&#xcf;" horiz-adv-x="563" d="M-55 1765q0 80 43 114t100 34q59 0 104.5 -34t45.5 -114q0 -78 -45.5 -111.5t-104.5 -33.5q-57 0 -100 33.5t-43 111.5zM119 0v1524h325v-1524h-325zM119 0v1524h325v-1524h-325zM324 1765q0 80 43 114t100 34q59 0 104 -34t45 -114q0 -78 -45 -111.5t-104 -33.5 q-57 0 -100 33.5t-43 111.5z" />
<glyph unicode="&#xd0;" horiz-adv-x="1480" d="M20 653v250h130v621h552q141 0 268.5 -42t222.5 -133.5t151.5 -236.5t56.5 -350q0 -207 -56.5 -351.5t-153.5 -235.5t-225 -133t-270 -42h-546v653h-130zM465 260h233q74 0 142.5 24.5t122 83t85 154.5t31.5 240q0 143 -31.5 239.5t-85 154.5t-124 83t-146.5 25h-227 v-361h305v-250h-305v-393z" />
<glyph unicode="&#xd1;" horiz-adv-x="1431" d="M117 0v1524h350l561 -1004v1004h287v-1524h-328l-584 1008v-1008h-286zM319 1614q6 84 37 151q12 29 31.5 56.5t46.5 49t62.5 35t82.5 13.5q53 0 91 -16.5t69 -36t59.5 -36t61.5 -16.5q31 0 47 15.5t25 35.5q8 23 10 54h201q-8 -86 -37 -154q-25 -57 -77 -104t-144 -47 q-53 0 -90 16t-68 35.5t-59.5 36t-63.5 16.5q-31 0 -47.5 -16.5t-24.5 -36.5q-8 -23 -10 -51h-203z" />
<glyph unicode="&#xd2;" horiz-adv-x="1587" d="M86 762q0 211 56.5 360.5t153.5 242.5t225 136t274 43q143 0 272 -43t226.5 -136t153.5 -242.5t56 -360.5t-56 -359.5t-153.5 -242.5t-226.5 -137t-272 -43q-145 0 -273.5 43t-225.5 137t-153.5 242.5t-56.5 359.5zM399 762q0 -147 32 -248.5t87 -164t128 -89.5t155 -27 q76 0 146.5 27t124.5 89.5t86 163.5t32 249q0 150 -32 250t-85 161.5t-126 88t-152 26.5q-78 0 -150 -26.5t-126 -88t-87 -161.5t-33 -250zM504 1930h323l187 -316h-240z" />
<glyph unicode="&#xd3;" horiz-adv-x="1587" d="M86 762q0 211 56.5 360.5t153.5 242.5t225 136t274 43q143 0 272 -43t226.5 -136t153.5 -242.5t56 -360.5t-56 -359.5t-153.5 -242.5t-226.5 -137t-272 -43q-145 0 -273.5 43t-225.5 137t-153.5 242.5t-56.5 359.5zM399 762q0 -147 32 -248.5t87 -164t128 -89.5t155 -27 q76 0 146.5 27t124.5 89.5t86 163.5t32 249q0 150 -32 250t-85 161.5t-126 88t-152 26.5q-78 0 -150 -26.5t-126 -88t-87 -161.5t-33 -250zM588 1614l180 316h326l-270 -316h-236z" />
<glyph unicode="&#xd4;" horiz-adv-x="1587" d="M86 762q0 211 56.5 360.5t153.5 242.5t225 136t274 43q143 0 272 -43t226.5 -136t153.5 -242.5t56 -360.5t-56 -359.5t-153.5 -242.5t-226.5 -137t-272 -43q-145 0 -273.5 43t-225.5 137t-153.5 242.5t-56.5 359.5zM399 762q0 -147 32 -248.5t87 -164t128 -89.5t155 -27 q76 0 146.5 27t124.5 89.5t86 163.5t32 249q0 150 -32 250t-85 161.5t-126 88t-152 26.5q-78 0 -150 -26.5t-126 -88t-87 -161.5t-33 -250zM428 1613l250 314h241l248 -314h-264l-107 156l-104 -156h-264z" />
<glyph unicode="&#xd5;" horiz-adv-x="1587" d="M86 762q0 211 56.5 360.5t153.5 242.5t225 136t274 43q143 0 272 -43t226.5 -136t153.5 -242.5t56 -360.5t-56 -359.5t-153.5 -242.5t-226.5 -137t-272 -43q-145 0 -273.5 43t-225.5 137t-153.5 242.5t-56.5 359.5zM399 762q0 -147 32 -248.5t87 -164t128 -89.5t155 -27 q76 0 146.5 27t124.5 89.5t86 163.5t32 249q0 150 -32 250t-85 161.5t-126 88t-152 26.5q-78 0 -150 -26.5t-126 -88t-87 -161.5t-33 -250zM389 1614q6 84 37 151q12 29 31.5 56.5t46.5 49t62.5 35t82.5 13.5q53 0 91 -16.5t69 -36t59.5 -36t61.5 -16.5q31 0 47 15.5 t25 35.5q8 23 10 54h201q-8 -86 -37 -154q-25 -57 -77 -104t-144 -47q-53 0 -90 16t-68 35.5t-59.5 36t-63.5 16.5q-31 0 -47.5 -16.5t-24.5 -36.5q-8 -23 -10 -51h-203z" />
<glyph unicode="&#xd6;" horiz-adv-x="1587" d="M86 762q0 211 56.5 360.5t153.5 242.5t225 136t274 43q143 0 272 -43t226.5 -136t153.5 -242.5t56 -360.5t-56 -359.5t-153.5 -242.5t-226.5 -137t-272 -43q-145 0 -273.5 43t-225.5 137t-153.5 242.5t-56.5 359.5zM399 762q0 -147 32 -248.5t87 -164t128 -89.5t155 -27 q76 0 146.5 27t124.5 89.5t86 163.5t32 249q0 150 -32 250t-85 161.5t-126 88t-152 26.5q-78 0 -150 -26.5t-126 -88t-87 -161.5t-33 -250zM414 1765q0 80 47 114t106 34q63 0 112.5 -34t49.5 -114q0 -78 -49 -112.5t-113 -34.5q-59 0 -106 34.5t-47 112.5zM873 1765 q0 80 47 114t106 34q63 0 112.5 -34t49.5 -114q0 -78 -49 -112.5t-113 -34.5q-59 0 -106 34.5t-47 112.5z" />
<glyph unicode="&#xd7;" d="M166 326l272 272l-272 272l176 177l272 -273l273 273l176 -177l-272 -272l272 -272l-176 -176l-273 272l-272 -272z" />
<glyph unicode="&#xd8;" horiz-adv-x="1587" d="M84 762q0 211 56.5 360.5t153.5 242.5t226 136t275 43q150 0 280 -53l72 123h295l-148 -256q96 -94 152.5 -240.5t56.5 -355.5q0 -213 -56 -361.5t-153.5 -241.5t-226.5 -136t-272 -43q-150 0 -267 45l-75 -131h-297l147 258q-100 92 -159.5 242.5t-59.5 367.5zM397 762 q0 -111 21.5 -192t56.5 -134l471 819q-72 33 -151 33q-80 0 -152 -27.5t-127 -90t-87 -163t-32 -245.5zM659 258q29 -12 66 -18.5t76 -6.5q82 0 153.5 27t123.5 89.5t82 163.5t30 249q0 98 -20.5 173t-49.5 126z" />
<glyph unicode="&#xd9;" horiz-adv-x="1456" d="M115 557v967h319v-967q0 -147 75 -229t222 -82q150 0 222.5 81t72.5 230v967h315v-967q0 -137 -42 -245.5t-120.5 -184.5t-192.5 -116t-257 -40t-257 40t-193.5 116t-121.5 184.5t-42 245.5zM408 1930h323l187 -316h-240z" />
<glyph unicode="&#xda;" horiz-adv-x="1456" d="M115 557v967h319v-967q0 -147 75 -229t222 -82q150 0 222.5 81t72.5 230v967h315v-967q0 -137 -42 -245.5t-120.5 -184.5t-192.5 -116t-257 -40t-257 40t-193.5 116t-121.5 184.5t-42 245.5zM555 1614l180 316h326l-270 -316h-236z" />
<glyph unicode="&#xdb;" horiz-adv-x="1456" d="M115 557v967h319v-967q0 -147 75 -229t222 -82q150 0 222.5 81t72.5 230v967h315v-967q0 -137 -42 -245.5t-120.5 -184.5t-192.5 -116t-257 -40t-257 40t-193.5 116t-121.5 184.5t-42 245.5zM367 1613l250 314h241l248 -314h-264l-107 156l-104 -156h-264z" />
<glyph unicode="&#xdc;" horiz-adv-x="1456" d="M115 557v967h319v-967q0 -147 75 -229t222 -82q150 0 222.5 81t72.5 230v967h315v-967q0 -137 -42 -245.5t-120.5 -184.5t-192.5 -116t-257 -40t-257 40t-193.5 116t-121.5 184.5t-42 245.5zM344 1763q0 80 47 114t106 34q63 0 112.5 -34t49.5 -114q0 -78 -49 -112.5 t-113 -34.5q-59 0 -106 34.5t-47 112.5zM803 1763q0 80 47 114t106 34q63 0 112.5 -34t49.5 -114q0 -78 -49 -112.5t-113 -34.5q-59 0 -106 34.5t-47 112.5z" />
<glyph unicode="&#xdd;" horiz-adv-x="1372" d="M27 1524h356l307 -574l307 574h349l-500 -852v-672h-314v666zM518 1614l180 316h326l-270 -316h-236z" />
<glyph unicode="&#xde;" horiz-adv-x="1277" d="M117 0v1524h307v-242h326q98 0 184 -29.5t149.5 -87t100.5 -142.5t37 -198q0 -111 -38 -198.5t-102.5 -148t-150.5 -92.5t-182 -32h-324v-354h-307zM424 606h287q96 0 160.5 56.5t64.5 160.5q0 102 -60.5 153.5t-154.5 51.5h-297v-422z" />
<glyph unicode="&#xdf;" horiz-adv-x="1140" d="M104 0v1122q0 197 106.5 305.5t303.5 108.5q193 0 301.5 -99.5t108.5 -271.5q0 -53 -10.5 -100t-25 -87t-31.5 -72t-32 -54l-12 -21l23 -10q37 -18 78.5 -49t78.5 -77t60.5 -108.5t23.5 -148.5q0 -111 -38 -193.5t-103.5 -137t-151.5 -81t-180 -26.5h-125v236h113 q90 0 153.5 48t63.5 160q0 98 -52 160t-126 103l-105 59l66 117q31 53 49 112.5t18 137.5q0 82 -39.5 126t-105.5 44q-59 0 -100 -41t-41 -140v-1122h-269z" />
<glyph unicode="&#xe0;" horiz-adv-x="1157" d="M66 301q0 96 39.5 162.5t110.5 107.5t166 59.5t204 18.5h147v51q0 84 -46 117t-128 33q-84 0 -153.5 -15.5t-120.5 -31.5q-59 -20 -109 -45l-78 217q59 33 133 57q63 23 148.5 41.5t189.5 18.5q205 0 314.5 -88.5t109.5 -288.5v-379q0 -66 38 -98.5t87 -32.5l-22 -219 q-137 0 -214 33.5t-114 109.5q-45 -41 -102 -72q-49 -27 -117 -48t-150 -21q-72 0 -133 19.5t-106 59t-69.5 98t-24.5 136.5zM332 315q0 -59 40 -83.5t89 -24.5q57 0 107 16.5t87 38.5q43 25 78 57v142h-145q-145 0 -200.5 -44.5t-55.5 -101.5zM273 1524h323l187 -316h-240z " />
<glyph unicode="&#xe1;" horiz-adv-x="1157" d="M66 301q0 96 39.5 162.5t110.5 107.5t166 59.5t204 18.5h147v51q0 84 -46 117t-128 33q-84 0 -153.5 -15.5t-120.5 -31.5q-59 -20 -109 -45l-78 217q59 33 133 57q63 23 148.5 41.5t189.5 18.5q205 0 314.5 -88.5t109.5 -288.5v-379q0 -66 38 -98.5t87 -32.5l-22 -219 q-137 0 -214 33.5t-114 109.5q-45 -41 -102 -72q-49 -27 -117 -48t-150 -21q-72 0 -133 19.5t-106 59t-69.5 98t-24.5 136.5zM332 315q0 -59 40 -83.5t89 -24.5q57 0 107 16.5t87 38.5q43 25 78 57v142h-145q-145 0 -200.5 -44.5t-55.5 -101.5zM387 1208l180 316h326 l-270 -316h-236z" />
<glyph unicode="&#xe2;" horiz-adv-x="1157" d="M66 301q0 96 39.5 162.5t110.5 107.5t166 59.5t204 18.5h147v51q0 84 -46 117t-128 33q-84 0 -153.5 -15.5t-120.5 -31.5q-59 -20 -109 -45l-78 217q59 33 133 57q63 23 148.5 41.5t189.5 18.5q205 0 314.5 -88.5t109.5 -288.5v-379q0 -66 38 -98.5t87 -32.5l-22 -219 q-137 0 -214 33.5t-114 109.5q-45 -41 -102 -72q-49 -27 -117 -48t-150 -21q-72 0 -133 19.5t-106 59t-69.5 98t-24.5 136.5zM332 315q0 -59 40 -83.5t89 -24.5q57 0 107 16.5t87 38.5q43 25 78 57v142h-145q-145 0 -200.5 -44.5t-55.5 -101.5zM197 1212l250 314h241 l248 -314h-264l-107 156l-104 -156h-264z" />
<glyph unicode="&#xe3;" horiz-adv-x="1157" d="M66 301q0 96 39.5 162.5t110.5 107.5t166 59.5t204 18.5h147v51q0 84 -46 117t-128 33q-84 0 -153.5 -15.5t-120.5 -31.5q-59 -20 -109 -45l-78 217q59 33 133 57q63 23 148.5 41.5t189.5 18.5q205 0 314.5 -88.5t109.5 -288.5v-379q0 -66 38 -98.5t87 -32.5l-22 -219 q-137 0 -214 33.5t-114 109.5q-45 -41 -102 -72q-49 -27 -117 -48t-150 -21q-72 0 -133 19.5t-106 59t-69.5 98t-24.5 136.5zM332 315q0 -59 40 -83.5t89 -24.5q57 0 107 16.5t87 38.5q43 25 78 57v142h-145q-145 0 -200.5 -44.5t-55.5 -101.5zM147 1217q6 84 37 151 q12 29 31.5 56.5t46.5 49t62.5 35t82.5 13.5q53 0 91 -16.5t69 -36t59.5 -36t61.5 -16.5q31 0 47 15.5t25 35.5q8 23 10 54h201q-8 -86 -37 -154q-25 -57 -77 -104t-144 -47q-53 0 -90 16t-68 35.5t-59.5 36t-63.5 16.5q-31 0 -47.5 -16.5t-24.5 -36.5q-8 -23 -10 -51h-203z " />
<glyph unicode="&#xe4;" horiz-adv-x="1157" d="M66 301q0 96 39.5 162.5t110.5 107.5t166 59.5t204 18.5h147v51q0 84 -46 117t-128 33q-84 0 -153.5 -15.5t-120.5 -31.5q-59 -20 -109 -45l-78 217q59 33 133 57q63 23 148.5 41.5t189.5 18.5q205 0 314.5 -88.5t109.5 -288.5v-379q0 -66 38 -98.5t87 -32.5l-22 -219 q-137 0 -214 33.5t-114 109.5q-45 -41 -102 -72q-49 -27 -117 -48t-150 -21q-72 0 -133 19.5t-106 59t-69.5 98t-24.5 136.5zM332 315q0 -59 40 -83.5t89 -24.5q57 0 107 16.5t87 38.5q43 25 78 57v142h-145q-145 0 -200.5 -44.5t-55.5 -101.5zM195 1376q0 80 47 114t106 34 q63 0 112.5 -34t49.5 -114q0 -78 -49 -112.5t-113 -34.5q-59 0 -106 34.5t-47 112.5zM654 1376q0 80 47 114t106 34q63 0 112.5 -34t49.5 -114q0 -78 -49 -112.5t-113 -34.5q-59 0 -106 34.5t-47 112.5z" />
<glyph unicode="&#xe5;" horiz-adv-x="1157" d="M66 301q0 96 39.5 162.5t110.5 107.5t166 59.5t204 18.5h147v51q0 84 -46 117t-128 33q-84 0 -153.5 -15.5t-120.5 -31.5q-59 -20 -109 -45l-78 217q59 33 133 57q63 23 148.5 41.5t189.5 18.5q205 0 314.5 -88.5t109.5 -288.5v-379q0 -66 38 -98.5t87 -32.5l-22 -219 q-137 0 -214 33.5t-114 109.5q-45 -41 -102 -72q-49 -27 -117 -48t-150 -21q-72 0 -133 19.5t-106 59t-69.5 98t-24.5 136.5zM332 315q0 -59 40 -83.5t89 -24.5q57 0 107 16.5t87 38.5q43 25 78 57v142h-145q-145 0 -200.5 -44.5t-55.5 -101.5zM307 1399q0 102 73 159.5 t193 57.5q117 0 190 -57.5t73 -159.5q0 -104 -74 -162.5t-189 -58.5q-117 0 -191.5 58.5t-74.5 162.5zM471 1399q0 -41 28.5 -67.5t73.5 -26.5q41 0 70 26.5t29 67.5q0 37 -23.5 63.5t-75.5 26.5q-47 0 -74.5 -26.5t-27.5 -63.5z" />
<glyph unicode="&#xe6;" horiz-adv-x="1775" d="M66 305q0 96 39.5 161.5t110.5 106.5t166 58.5t204 17.5h149v51q0 84 -46 117t-130 33q-86 0 -155.5 -15.5t-120.5 -31.5q-59 -20 -107 -45l-78 217q57 33 131 57q61 23 147.5 41.5t188.5 18.5q117 0 202 -34t130 -95q61 66 148.5 98.5t181.5 32.5t180 -28t152.5 -92.5 t106.5 -169t40 -255.5v-105h-709q8 -59 35 -100t65 -65.5t84 -36t95 -11.5q74 0 138.5 14.5t111.5 30.5q55 20 102 48l74 -220q-53 -35 -121 -61q-59 -23 -140 -41t-179 -18q-119 0 -219.5 34.5t-172.5 112.5q-20 -14 -59 -38.5t-94 -47t-127 -40t-158 -17.5 q-78 0 -145.5 20.5t-116.5 60.5t-76.5 99t-27.5 137zM334 326q0 -61 42 -91t109 -30q92 0 165 29.5t120 62.5q-14 35 -22.5 77t-12.5 89h-147q-74 0 -122 -10.5t-78 -28.5t-42 -42.5t-12 -55.5zM999 633h433q0 63 -19.5 109t-49.5 74t-66.5 41t-73.5 13t-75 -12t-68.5 -39.5 t-52.5 -73.5t-28 -112z" />
<glyph unicode="&#xe7;" horiz-adv-x="1101" d="M68 541q0 152 43 257t114.5 171.5t163.5 96.5t189 30q82 0 144 -16.5t110.5 -44t82 -61.5t56.5 -71q53 -84 69 -190l-258 -58q-10 57 -32 103q-20 39 -60.5 71.5t-107.5 32.5q-43 0 -84 -14t-73 -51t-51.5 -99.5t-19.5 -156.5q0 -96 19.5 -159t50.5 -98.5t71 -49 t83 -13.5q66 0 105.5 29t61.5 63q25 39 35 93l260 -56q-16 -92 -65 -168q-41 -66 -120 -123t-214 -71l-39 -72q31 -2 61.5 -11t55 -27.5t40 -45.5t15.5 -65q0 -82 -59.5 -130.5t-175.5 -48.5q-51 0 -91 9.5t-69 19.5q-35 12 -62 31l54 119q20 -14 47 -25q23 -10 53.5 -16.5 t67.5 -6.5q70 0 69 50q0 35 -45 44t-127 9l-12 31l76 135q-86 8 -165 44t-138.5 102.5t-94 167t-34.5 239.5z" />
<glyph unicode="&#xe8;" horiz-adv-x="1124" d="M68 539q0 147 42 252.5t110.5 171t158.5 96.5t188 31q94 0 181.5 -28t155 -91.5t107.5 -168t40 -255.5v-103h-707q8 -59 33.5 -100t63.5 -66.5t85 -37t97 -11.5q74 0 137 14.5t110 30.5q55 20 103 48l76 -218q-55 -35 -123 -61q-59 -23 -139 -41t-179 -18 q-111 0 -209 30.5t-171.5 97t-116.5 172t-43 255.5zM344 631h432q0 66 -18.5 110.5t-48 73.5t-66.5 42t-74 13q-39 0 -76.5 -12t-68.5 -41t-52.5 -73.5t-27.5 -112.5zM287 1524h323l187 -316h-240z" />
<glyph unicode="&#xe9;" horiz-adv-x="1124" d="M68 539q0 147 42 252.5t110.5 171t158.5 96.5t188 31q94 0 181.5 -28t155 -91.5t107.5 -168t40 -255.5v-103h-707q8 -59 33.5 -100t63.5 -66.5t85 -37t97 -11.5q74 0 137 14.5t110 30.5q55 20 103 48l76 -218q-55 -35 -123 -61q-59 -23 -139 -41t-179 -18 q-111 0 -209 30.5t-171.5 97t-116.5 172t-43 255.5zM344 631h432q0 66 -18.5 110.5t-48 73.5t-66.5 42t-74 13q-39 0 -76.5 -12t-68.5 -41t-52.5 -73.5t-27.5 -112.5zM373 1208l180 316h326l-270 -316h-236z" />
<glyph unicode="&#xea;" horiz-adv-x="1124" d="M68 539q0 147 42 252.5t110.5 171t158.5 96.5t188 31q94 0 181.5 -28t155 -91.5t107.5 -168t40 -255.5v-103h-707q8 -59 33.5 -100t63.5 -66.5t85 -37t97 -11.5q74 0 137 14.5t110 30.5q55 20 103 48l76 -218q-55 -35 -123 -61q-59 -23 -139 -41t-179 -18 q-111 0 -209 30.5t-171.5 97t-116.5 172t-43 255.5zM344 631h432q0 66 -18.5 110.5t-48 73.5t-66.5 42t-74 13q-39 0 -76.5 -12t-68.5 -41t-52.5 -73.5t-27.5 -112.5zM211 1212l250 314h241l248 -314h-264l-107 156l-104 -156h-264z" />
<glyph unicode="&#xeb;" horiz-adv-x="1124" d="M68 539q0 147 42 252.5t110.5 171t158.5 96.5t188 31q94 0 181.5 -28t155 -91.5t107.5 -168t40 -255.5v-103h-707q8 -59 33.5 -100t63.5 -66.5t85 -37t97 -11.5q74 0 137 14.5t110 30.5q55 20 103 48l76 -218q-55 -35 -123 -61q-59 -23 -139 -41t-179 -18 q-111 0 -209 30.5t-171.5 97t-116.5 172t-43 255.5zM344 631h432q0 66 -18.5 110.5t-48 73.5t-66.5 42t-74 13q-39 0 -76.5 -12t-68.5 -41t-52.5 -73.5t-27.5 -112.5zM199 1376q0 80 47 114t106 34q63 0 112.5 -34t49.5 -114q0 -78 -49 -112.5t-113 -34.5q-59 0 -106 34.5 t-47 112.5zM658 1376q0 80 47 114t106 34q63 0 112.5 -34t49.5 -114q0 -78 -49 -112.5t-113 -34.5q-59 0 -106 34.5t-47 112.5z" />
<glyph unicode="&#xec;" horiz-adv-x="507" d="M115 0v1069h276v-1069h-276zM-86 1524h323l187 -316h-240z" />
<glyph unicode="&#xed;" horiz-adv-x="507" d="M115 0v1069h276v-1069h-276zM88 1208l180 316h326l-270 -316h-236z" />
<glyph unicode="&#xee;" horiz-adv-x="507" d="M115 0v1069h276v-1069h-276zM-116 1212l250 314h241l248 -314h-264l-107 156l-104 -156h-264z" />
<glyph unicode="&#xef;" horiz-adv-x="507" d="M-82 1376q0 80 43 114t100 34q59 0 104.5 -34t45.5 -114q0 -78 -45 -112.5t-105 -34.5q-57 0 -100 34.5t-43 112.5zM115 0v1069h276v-1069h-276zM297 1376q0 80 43 114t100 34q59 0 104.5 -34t45.5 -114q0 -78 -45 -112.5t-105 -34.5q-57 0 -100 34.5t-43 112.5z" />
<glyph unicode="&#xf0;" horiz-adv-x="1155" d="M68 541q0 139 33.5 240.5t92 167t136.5 96t168 30.5q53 0 99 -12t81 -27q39 -18 74 -39q-4 10 -11.5 33t-16.5 52.5t-21.5 61.5t-26.5 58l-252 -86v199l158 57q-23 35 -41.5 63.5t-34.5 49.5q-18 23 -33 39h275q8 -10 18 -23q10 -10 21.5 -25.5t25.5 -35.5l258 84v-199 l-156 -55q61 -121 110.5 -292t49.5 -394q0 -164 -39 -279t-106.5 -186.5t-157.5 -104t-192 -32.5q-104 0 -197.5 30.5t-163 97t-110.5 173t-41 258.5zM354 530q0 -94 17.5 -158.5t47.5 -103.5t70.5 -55t90.5 -16q45 0 83.5 16t66.5 57t43 111t15 174q0 29 -2 59.5t-4 55.5 q-4 29 -6 57q-33 31 -69 53q-33 20 -77 38t-98 18q-37 0 -69.5 -13.5t-56 -48.5t-38 -94.5t-14.5 -149.5z" />
<glyph unicode="&#xf1;" horiz-adv-x="1124" d="M102 0v1069h273v-123q39 39 90 70q43 27 104.5 48t135.5 21q137 0 225 -83.5t88 -272.5v-729h-275v686q0 78 -33.5 114t-93.5 36q-47 0 -90 -18.5t-75 -41.5q-37 -25 -72 -57v-719h-277zM155 1217q6 84 37 151q12 29 31.5 56.5t46.5 49t62.5 35t82.5 13.5q53 0 91 -16.5 t69 -36t59.5 -36t61.5 -16.5q31 0 47 15.5t25 35.5q8 23 10 54h201q-8 -86 -37 -154q-25 -57 -77 -104t-144 -47q-53 0 -90 16t-68 35.5t-59.5 36t-63.5 16.5q-31 0 -47.5 -16.5t-24.5 -36.5q-8 -23 -10 -51h-203z" />
<glyph unicode="&#xf2;" horiz-adv-x="1161" d="M68 535q0 152 41 257t110.5 171.5t162.5 96.5t198 30q106 0 199 -30t163 -96.5t110 -172t40 -256.5q0 -152 -40 -257.5t-110 -171t-163 -95t-199 -29.5q-104 0 -197.5 29.5t-163 95t-110.5 171t-41 257.5zM348 535q0 -96 18.5 -162t50.5 -106t75 -56t92 -16q47 0 88 16 t71.5 56t49 105.5t18.5 162.5q0 96 -18.5 161.5t-49 105.5t-73.5 56t-92 16q-47 0 -88 -16t-73 -56t-50.5 -105.5t-18.5 -161.5zM295 1524h323l187 -316h-240z" />
<glyph unicode="&#xf3;" horiz-adv-x="1161" d="M68 535q0 152 41 257t110.5 171.5t162.5 96.5t198 30q106 0 199 -30t163 -96.5t110 -172t40 -256.5q0 -152 -40 -257.5t-110 -171t-163 -95t-199 -29.5q-104 0 -197.5 29.5t-163 95t-110.5 171t-41 257.5zM348 535q0 -96 18.5 -162t50.5 -106t75 -56t92 -16q47 0 88 16 t71.5 56t49 105.5t18.5 162.5q0 96 -18.5 161.5t-49 105.5t-73.5 56t-92 16q-47 0 -88 -16t-73 -56t-50.5 -105.5t-18.5 -161.5zM403 1208l180 316h326l-270 -316h-236z" />
<glyph unicode="&#xf4;" horiz-adv-x="1161" d="M68 535q0 152 41 257t110.5 171.5t162.5 96.5t198 30q106 0 199 -30t163 -96.5t110 -172t40 -256.5q0 -152 -40 -257.5t-110 -171t-163 -95t-199 -29.5q-104 0 -197.5 29.5t-163 95t-110.5 171t-41 257.5zM348 535q0 -96 18.5 -162t50.5 -106t75 -56t92 -16q47 0 88 16 t71.5 56t49 105.5t18.5 162.5q0 96 -18.5 161.5t-49 105.5t-73.5 56t-92 16q-47 0 -88 -16t-73 -56t-50.5 -105.5t-18.5 -161.5zM215 1212l250 314h241l248 -314h-264l-107 156l-104 -156h-264z" />
<glyph unicode="&#xf5;" horiz-adv-x="1161" d="M68 535q0 152 41 257t110.5 171.5t162.5 96.5t198 30q106 0 199 -30t163 -96.5t110 -172t40 -256.5q0 -152 -40 -257.5t-110 -171t-163 -95t-199 -29.5q-104 0 -197.5 29.5t-163 95t-110.5 171t-41 257.5zM348 535q0 -96 18.5 -162t50.5 -106t75 -56t92 -16q47 0 88 16 t71.5 56t49 105.5t18.5 162.5q0 96 -18.5 161.5t-49 105.5t-73.5 56t-92 16q-47 0 -88 -16t-73 -56t-50.5 -105.5t-18.5 -161.5zM176 1217q6 84 37 151q12 29 31.5 56.5t46.5 49t62.5 35t82.5 13.5q53 0 91 -16.5t69 -36t59.5 -36t61.5 -16.5q31 0 47 15.5t25 35.5 q8 23 10 54h201q-8 -86 -37 -154q-25 -57 -77 -104t-144 -47q-53 0 -90 16t-68 35.5t-59.5 36t-63.5 16.5q-31 0 -47.5 -16.5t-24.5 -36.5q-8 -23 -10 -51h-203z" />
<glyph unicode="&#xf6;" horiz-adv-x="1161" d="M68 535q0 152 41 257t110.5 171.5t162.5 96.5t198 30q106 0 199 -30t163 -96.5t110 -172t40 -256.5q0 -152 -40 -257.5t-110 -171t-163 -95t-199 -29.5q-104 0 -197.5 29.5t-163 95t-110.5 171t-41 257.5zM348 535q0 -96 18.5 -162t50.5 -106t75 -56t92 -16q47 0 88 16 t71.5 56t49 105.5t18.5 162.5q0 96 -18.5 161.5t-49 105.5t-73.5 56t-92 16q-47 0 -88 -16t-73 -56t-50.5 -105.5t-18.5 -161.5zM203 1376q0 80 47 114t106 34q63 0 112.5 -34t49.5 -114q0 -78 -49 -112.5t-113 -34.5q-59 0 -106 34.5t-47 112.5zM662 1376q0 80 47 114 t106 34q63 0 112.5 -34t49.5 -114q0 -78 -49 -112.5t-113 -34.5q-59 0 -106 34.5t-47 112.5z" />
<glyph unicode="&#xf7;" d="M131 483v238h969v-238h-969zM471 215q0 82 43 114.5t98 32.5q57 0 99.5 -32.5t42.5 -114.5t-42 -117t-100 -35q-55 0 -98 35t-43 117zM471 991q0 82 43 114t98 32q57 0 99.5 -32t42.5 -114t-42 -115.5t-100 -33.5q-55 0 -98 33.5t-43 115.5z" />
<glyph unicode="&#xf8;" horiz-adv-x="1161" d="M68 535q0 150 41 255t110.5 171.5t162.5 96t198 29.5q53 0 101 -7t91 -23l64 112h225l-119 -211q68 -66 109 -169t41 -254q0 -152 -40 -256.5t-110 -170t-163 -95t-199 -29.5q-92 0 -179 22l-61 -112h-225l114 202q-76 66 -118.5 172.5t-42.5 266.5zM336 543 q0 -70 11 -126.5t28 -86.5l293 534q-4 2 -24.5 8.5t-65.5 6.5q-68 0 -114 -27t-75 -73t-41 -107t-12 -129zM510 197q4 -2 20.5 -6.5t51.5 -4.5q70 0 116.5 29t74.5 77t39 108.5t11 125.5q0 59 -8 112.5t-20 80.5z" />
<glyph unicode="&#xf9;" horiz-adv-x="1124" d="M102 340v729h277v-688q0 -80 33.5 -114t93.5 -34q47 0 88 17.5t76 40.5q37 25 73 59v719h275v-1069h-270v121q-41 -39 -93 -70q-43 -27 -104.5 -47t-132.5 -20q-139 0 -227.5 84t-88.5 272zM273 1524h323l187 -316h-240z" />
<glyph unicode="&#xfa;" horiz-adv-x="1124" d="M102 340v729h277v-688q0 -80 33.5 -114t93.5 -34q47 0 88 17.5t76 40.5q37 25 73 59v719h275v-1069h-270v121q-41 -39 -93 -70q-43 -27 -104.5 -47t-132.5 -20q-139 0 -227.5 84t-88.5 272zM405 1208l180 316h326l-270 -316h-236z" />
<glyph unicode="&#xfb;" horiz-adv-x="1124" d="M102 340v729h277v-688q0 -80 33.5 -114t93.5 -34q47 0 88 17.5t76 40.5q37 25 73 59v719h275v-1069h-270v121q-41 -39 -93 -70q-43 -27 -104.5 -47t-132.5 -20q-139 0 -227.5 84t-88.5 272zM201 1212l250 314h241l248 -314h-264l-107 156l-104 -156h-264z" />
<glyph unicode="&#xfc;" horiz-adv-x="1124" d="M102 340v729h277v-688q0 -80 33.5 -114t93.5 -34q47 0 88 17.5t76 40.5q37 25 73 59v719h275v-1069h-270v121q-41 -39 -93 -70q-43 -27 -104.5 -47t-132.5 -20q-139 0 -227.5 84t-88.5 272zM191 1376q0 80 47 114t106 34q63 0 112.5 -34t49.5 -114q0 -78 -49 -112.5 t-113 -34.5q-59 0 -106 34.5t-47 112.5zM650 1376q0 80 47 114t106 34q63 0 112.5 -34t49.5 -114q0 -78 -49 -112.5t-113 -34.5q-59 0 -106 34.5t-47 112.5z" />
<glyph unicode="&#xfd;" horiz-adv-x="1021" d="M20 1069h293l224 -707l188 707h276l-368 -1188q-41 -139 -137.5 -202.5t-251.5 -63.5h-68v223h45q53 0 85 19.5t48 66.5l37 107zM342 1208l180 316h326l-270 -316h-236z" />
<glyph unicode="&#xfe;" horiz-adv-x="1157" d="M104 -385v1909h271v-561q41 35 92 61q43 23 98.5 42t120.5 19q82 0 155.5 -28.5t127 -94t85 -171t31.5 -259.5q0 -152 -32.5 -256t-90 -169.5t-133 -94t-163.5 -28.5q-61 0 -114.5 16t-92.5 37q-45 23 -82 55v-477h-273zM377 330q35 -33 72 -58q33 -23 75.5 -39t93.5 -16 q37 0 70 14.5t57.5 50t39 96t14.5 154.5t-14.5 156t-39 96.5t-57.5 49t-70 14.5q-51 0 -95 -17.5t-77 -39.5q-37 -25 -69 -58v-403z" />
<glyph unicode="&#xff;" horiz-adv-x="1021" d="M20 1069h293l224 -707l188 707h276l-368 -1188q-41 -139 -137.5 -202.5t-251.5 -63.5h-68v223h45q53 0 85 19.5t48 66.5l37 107zM142 1376q0 80 47 114t106 34q63 0 112.5 -34t49.5 -114q0 -78 -49 -112.5t-113 -34.5q-59 0 -106 34.5t-47 112.5zM601 1376q0 80 47 114 t106 34q63 0 112.5 -34t49.5 -114q0 -78 -49 -112.5t-113 -34.5q-59 0 -106 34.5t-47 112.5z" />
<glyph unicode="&#x131;" horiz-adv-x="507" d="M115 0v1069h276v-1069h-276z" />
<glyph unicode="&#x152;" horiz-adv-x="2121" d="M84 762q0 207 56.5 351t152.5 235.5t224 133.5t269 42h1252v-258h-723v-361h637v-256h-637v-387h727v-262h-1254q-141 0 -269 42t-224 133t-153.5 235.5t-57.5 351.5zM406 764q0 -143 31.5 -239.5t86 -155t123 -83t141.5 -24.5h222v1004h-215q-78 0 -147.5 -24.5 t-124 -83t-86 -155t-31.5 -239.5z" />
<glyph unicode="&#x153;" horiz-adv-x="1867" d="M68 535q0 152 39.5 257t109.5 171.5t163 96.5t200 30q117 0 212 -39t160 -125q66 88 160 127t201 39q94 0 181 -28t154.5 -91.5t107.5 -168t40 -255.5v-105h-706q8 -59 33.5 -100t63.5 -65.5t84 -36t95 -11.5q74 0 138.5 14.5t111.5 30.5q55 20 102 48l76 -220 q-53 -35 -121 -61q-59 -23 -139 -41t-178 -18q-123 0 -226.5 38.5t-173.5 127.5q-63 -92 -161.5 -130t-214.5 -38q-106 0 -199.5 29.5t-163.5 95t-109.5 171t-39.5 257.5zM350 535q0 -96 18.5 -161t50.5 -105t74 -56t91 -16q47 0 88 16t71.5 56t49 104.5t18.5 161.5 q0 96 -17.5 161.5t-49 104.5t-73.5 55t-91 16q-45 0 -87 -16t-74 -55t-50.5 -104.5t-18.5 -161.5zM1092 633h430q0 63 -19.5 109t-48.5 74t-66.5 41t-74.5 13t-75 -12t-68.5 -39.5t-52 -73.5t-25.5 -112z" />
<glyph unicode="&#x178;" horiz-adv-x="1372" d="M27 1524h356l307 -574l307 574h349l-500 -852v-672h-314v666zM314 1763q0 80 47 114t106 34q63 0 112.5 -34t49.5 -114q0 -78 -49 -112.5t-113 -34.5q-59 0 -106 34.5t-47 112.5zM773 1763q0 80 47 114t106 34q63 0 112.5 -34t49.5 -114q0 -78 -49 -112.5t-113 -34.5 q-59 0 -106 34.5t-47 112.5z" />
<glyph unicode="&#x2c6;" horiz-adv-x="1126" d="M201 1212l250 314h241l248 -314h-264l-107 156l-104 -156h-264z" />
<glyph unicode="&#x2da;" horiz-adv-x="1126" d="M307 1399q0 102 73 159.5t193 57.5q117 0 190 -57.5t73 -159.5q0 -104 -74 -162.5t-189 -58.5q-117 0 -191.5 58.5t-74.5 162.5zM471 1399q0 -41 28.5 -67.5t73.5 -26.5q41 0 70 26.5t29 67.5q0 37 -23.5 63.5t-75.5 26.5q-47 0 -74.5 -26.5t-27.5 -63.5z" />
<glyph unicode="&#x2dc;" horiz-adv-x="1126" d="M139 1217q6 84 37 151q12 29 31.5 56.5t46.5 49t62.5 35t82.5 13.5q53 0 91 -16.5t69 -36t59.5 -36t61.5 -16.5q31 0 47 15.5t25 35.5q8 23 10 54h201q-8 -86 -37 -154q-25 -57 -77 -104t-144 -47q-53 0 -90 16t-68 35.5t-59.5 36t-63.5 16.5q-31 0 -47.5 -16.5 t-24.5 -36.5q-8 -23 -10 -51h-203z" />
<glyph unicode="&#x2000;" horiz-adv-x="964" />
<glyph unicode="&#x2001;" horiz-adv-x="1929" />
<glyph unicode="&#x2002;" horiz-adv-x="964" />
<glyph unicode="&#x2003;" horiz-adv-x="1929" />
<glyph unicode="&#x2004;" horiz-adv-x="643" />
<glyph unicode="&#x2005;" horiz-adv-x="481" />
<glyph unicode="&#x2006;" horiz-adv-x="321" />
<glyph unicode="&#x2007;" horiz-adv-x="321" />
<glyph unicode="&#x2008;" horiz-adv-x="239" />
<glyph unicode="&#x2009;" horiz-adv-x="385" />
<glyph unicode="&#x200a;" horiz-adv-x="106" />
<glyph unicode="&#x2010;" horiz-adv-x="784" d="M74 483v244h635v-244h-635z" />
<glyph unicode="&#x2011;" horiz-adv-x="784" d="M74 483v244h635v-244h-635z" />
<glyph unicode="&#x2012;" horiz-adv-x="784" d="M74 483v244h635v-244h-635z" />
<glyph unicode="&#x2013;" d="M125 483v244h983v-244h-983z" />
<glyph unicode="&#x2014;" horiz-adv-x="2048" d="M74 483v244h1898v-244h-1898z" />
<glyph unicode="&#x2018;" horiz-adv-x="458" d="M47 1094l178 430h185l-107 -430h-256z" />
<glyph unicode="&#x2019;" horiz-adv-x="458" d="M47 1094l107 430h256l-179 -430h-184z" />
<glyph unicode="&#x201a;" horiz-adv-x="458" d="M47 -206l107 430h256l-179 -430h-184z" />
<glyph unicode="&#x201c;" horiz-adv-x="802" d="M47 1094l178 430h178l-108 -430h-248zM401 1094l177 430h176l-105 -430h-248z" />
<glyph unicode="&#x201d;" horiz-adv-x="802" d="M45 1094l109 430h249l-180 -430h-178zM399 1094l107 430h248l-176 -430h-179z" />
<glyph unicode="&#x201e;" horiz-adv-x="802" d="M45 -209l109 430h249l-180 -430h-178zM399 -209l107 430h248l-176 -430h-179z" />
<glyph unicode="&#x2022;" horiz-adv-x="886" d="M147 614q0 61 23 114.5t62.5 93.5t93 62.5t114.5 22.5t114.5 -22.5t93.5 -62.5t62.5 -93t22.5 -115q0 -61 -22.5 -114.5t-62.5 -93t-93 -62t-115 -22.5q-61 0 -114.5 22.5t-93 62t-62.5 93t-23 114.5z" />
<glyph unicode="&#x2026;" horiz-adv-x="1437" d="M82 147q0 90 48 127t110 37q63 0 112 -36.5t49 -127.5q0 -88 -49 -125.5t-112 -37.5q-61 0 -109.5 37.5t-48.5 125.5zM559 147q0 90 48 127t110 37q63 0 112 -36.5t49 -127.5q0 -88 -49 -125.5t-112 -37.5q-61 0 -109.5 37.5t-48.5 125.5zM1040 147q0 90 48 127t110 37 q63 0 112 -36.5t49 -127.5q0 -88 -49 -125.5t-112 -37.5q-61 0 -109.5 37.5t-48.5 125.5z" />
<glyph unicode="&#x202f;" horiz-adv-x="385" />
<glyph unicode="&#x2039;" horiz-adv-x="706" d="M49 582l324 364h284l-327 -364l327 -367h-284z" />
<glyph unicode="&#x203a;" horiz-adv-x="706" d="M49 215l330 367l-330 364h287l321 -364l-321 -367h-287z" />
<glyph unicode="&#x2044;" horiz-adv-x="1845" d="M258 0l1065 1524h258l-1059 -1524h-264z" />
<glyph unicode="&#x205f;" horiz-adv-x="481" />
<glyph unicode="&#x20ac;" d="M45 512v190h154v115h-154v187h160q16 264 151.5 403t358.5 139q80 0 142.5 -16.5t110.5 -43t81.5 -60t58.5 -68.5q53 -82 72 -187l-273 -51q-10 51 -33 92q-20 35 -58 64t-103 29q-86 0 -143.5 -69t-67.5 -232h344v-187h-348v-115h348v-190h-342q10 -160 67.5 -226.5 t141.5 -66.5q66 0 103.5 27.5t57.5 62.5q23 39 33 92l273 -49q-18 -106 -74 -188q-25 -35 -58.5 -69t-81.5 -60.5t-109.5 -42t-141.5 -15.5q-223 0 -355.5 136.5t-154.5 398.5h-160z" />
<glyph unicode="&#x2122;" horiz-adv-x="1779" d="M104 1366v158h637v-158h-221v-682h-196v682h-220zM842 684v840h243l158 -561l162 561h237v-840h-174v506l-151 -506h-156l-147 504v-504h-172z" />
<glyph unicode="&#xe000;" horiz-adv-x="1070" d="M0 1070h1070v-1070h-1070v1070z" />
<glyph unicode="&#xfb01;" horiz-adv-x="1232" d="M35 850v219h149v150q0 158 93.5 236.5t246.5 78.5q47 0 88 -4t70 -8q35 -6 61 -13l-32 -219q-18 2 -41 6q-18 4 -43 6.5t-52 2.5q-61 0 -86.5 -30t-25.5 -87v-119h655v-1069h-278v850h-377v-850h-279v850h-149zM821 1376q0 80 47 114t107 34q66 0 114 -34t48 -114 q0 -78 -48.5 -112.5t-113.5 -34.5q-59 0 -106.5 34.5t-47.5 112.5z" />
<glyph unicode="&#xfb02;" horiz-adv-x="1216" d="M35 850v219h149v115q0 182 114 266t333 84q86 0 172 -11.5t155 -23.5q82 -14 156 -33v-1466h-276v1288q-31 4 -66 10q-29 4 -65.5 8.5t-73.5 4.5q-86 0 -130 -29t-44 -100v-113h248v-219h-248v-850h-275v850h-149z" />
<glyph unicode="&#xfb03;" horiz-adv-x="1961" d="M1550 1376q0 80 47 114t109 34q61 0 110.5 -34t49.5 -114q0 -78 -49.5 -112.5t-110.5 -34.5t-108.5 34.5t-47.5 112.5zM1569 0v1069h276v-1069h-276zM762 850v219h149v150q0 158 93.5 236.5t246.5 78.5q47 0 88 -4t72 -8q37 -6 66 -13l-33 -223q-20 4 -43 8 q-20 4 -46 7.5t-53 3.5q-61 0 -86.5 -30t-25.5 -87v-119h246v-219h-246v-850h-279v850h-149zM35 850v219h149v150q0 158 93.5 236.5t246.5 78.5q47 0 88 -4t72 -8q37 -6 66 -13l-33 -223q-20 4 -43 8q-20 4 -46 7.5t-53 3.5q-61 0 -86.5 -30t-25.5 -87v-119h246v-219h-246 v-850h-279v850h-149z" />
<glyph unicode="&#xfb04;" horiz-adv-x="1939" d="M1558 0v1524h277v-1524h-277zM762 850v219h149v150q0 158 93.5 236.5t246.5 78.5q47 0 88 -4t72 -8q37 -6 66 -13l-33 -223q-20 4 -43 8q-20 4 -46 7.5t-53 3.5q-61 0 -86.5 -30t-25.5 -87v-119h246v-219h-246v-850h-279v850h-149zM35 850v219h149v150q0 158 93.5 236.5 t246.5 78.5q47 0 88 -4t72 -8q37 -6 66 -13l-33 -223q-20 4 -43 8q-20 4 -46 7.5t-53 3.5q-61 0 -86.5 -30t-25.5 -87v-119h246v-219h-246v-850h-279v850h-149z" />
</font>
</defs>
</svg>
